  0
SECTION
  2
HEADER
  9
$ACADVER
  1
AC1021
  9
$ACADMAINTVER
 70
    25
  9
$DWGCODEPAGE
  3
ANSI_1252
  9
$LASTSAVEDBY
  1
richardkidd
  9
$INSBASE
 10
0.0
 20
0.0
 30
0.0
  9
$EXTMIN
 10
-71.07560778443678
 20
-71.4419393171746
 30
0.0
  9
$EXTMAX
 10
256.2507997185264
 20
164.6044442322175
 30
0.0
  9
$LIMMIN
 10
0.0
 20
0.0
  9
$LIMMAX
 10
420.0
 20
297.0
  9
$ORTHOMODE
 70
     1
  9
$REGENMODE
 70
     1
  9
$FILLMODE
 70
     1
  9
$QTEXTMODE
 70
     0
  9
$MIRRTEXT
 70
     1
  9
$LTSCALE
 40
5.0
  9
$ATTMODE
 70
     1
  9
$TEXTSIZE
 40
3.0
  9
$TRACEWID
 40
0.05
  9
$TEXTSTYLE
  7
STANDARD
  9
$CLAYER
  8
center
  9
$CELTYPE
  6
BYLAYER
  9
$CECOLOR
 62
   256
  9
$CELTSCALE
 40
1.0
  9
$DISPSILH
 70
     0
  9
$DIMSCALE
 40
1.0
  9
$DIMASZ
 40
2.5
  9
$DIMEXO
 40
0.625
  9
$DIMDLI
 40
3.75
  9
$DIMRND
 40
0.0
  9
$DIMDLE
 40
0.0
  9
$DIMEXE
 40
1.25
  9
$DIMTP
 40
0.0
  9
$DIMTM
 40
0.0
  9
$DIMTXT
 40
2.5
  9
$DIMCEN
 40
2.5
  9
$DIMTSZ
 40
0.0
  9
$DIMTOL
 70
     0
  9
$DIMLIM
 70
     0
  9
$DIMTIH
 70
     0
  9
$DIMTOH
 70
     0
  9
$DIMSE1
 70
     0
  9
$DIMSE2
 70
     0
  9
$DIMTAD
 70
     1
  9
$DIMZIN
 70
     8
  9
$DIMBLK
  1

  9
$DIMASO
 70
     1
  9
$DIMSHO
 70
     1
  9
$DIMPOST
  1

  9
$DIMAPOST
  1

  9
$DIMALT
 70
     0
  9
$DIMALTD
 70
     3
  9
$DIMALTF
 40
0.03937007874016
  9
$DIMLFAC
 40
1.0
  9
$DIMTOFL
 70
     1
  9
$DIMTVP
 40
0.0
  9
$DIMTIX
 70
     0
  9
$DIMSOXD
 70
     0
  9
$DIMSAH
 70
     0
  9
$DIMBLK1
  1

  9
$DIMBLK2
  1

  9
$DIMSTYLE
  2
ISO-25
  9
$DIMCLRD
 70
     0
  9
$DIMCLRE
 70
     0
  9
$DIMCLRT
 70
     0
  9
$DIMTFAC
 40
1.0
  9
$DIMGAP
 40
0.625
  9
$DIMJUST
 70
     0
  9
$DIMSD1
 70
     0
  9
$DIMSD2
 70
     0
  9
$DIMTOLJ
 70
     0
  9
$DIMTZIN
 70
     8
  9
$DIMALTZ
 70
     0
  9
$DIMALTTZ
 70
     0
  9
$DIMUPT
 70
     0
  9
$DIMDEC
 70
     2
  9
$DIMTDEC
 70
     2
  9
$DIMALTU
 70
     2
  9
$DIMALTTD
 70
     3
  9
$DIMTXSTY
  7
STANDARD
  9
$DIMAUNIT
 70
     0
  9
$DIMADEC
 70
     0
  9
$DIMALTRND
 40
0.0
  9
$DIMAZIN
 70
     0
  9
$DIMDSEP
 70
    44
  9
$DIMATFIT
 70
     3
  9
$DIMFRAC
 70
     0
  9
$DIMLDRBLK
  1

  9
$DIMLUNIT
 70
     2
  9
$DIMLWD
 70
    -2
  9
$DIMLWE
 70
    -2
  9
$DIMTMOVE
 70
     0
  9
$DIMFXL
 40
1.0
  9
$DIMFXLON
 70
     0
  9
$DIMJOGANG
 40
0.7853981633974483
  9
$DIMTFILL
 70
     0
  9
$DIMTFILLCLR
 70
     0
  9
$DIMARCSYM
 70
     0
  9
$DIMLTYPE
  6

  9
$DIMLTEX1
  6

  9
$DIMLTEX2
  6

  9
$LUNITS
 70
     2
  9
$LUPREC
 70
     4
  9
$SKETCHINC
 40
0.1
  9
$FILLETRAD
 40
0.0
  9
$AUNITS
 70
     0
  9
$AUPREC
 70
     0
  9
$MENU
  1
.
  9
$ELEVATION
 40
0.0
  9
$PELEVATION
 40
0.0
  9
$THICKNESS
 40
0.0
  9
$LIMCHECK
 70
     0
  9
$CHAMFERA
 40
0.0
  9
$CHAMFERB
 40
0.0
  9
$CHAMFERC
 40
0.0
  9
$CHAMFERD
 40
0.0
  9
$SKPOLY
 70
     0
  9
$TDCREATE
 40
2454183.342312257
  9
$TDUCREATE
 40
2454183.300645590
  9
$TDUPDATE
 40
2456065.406026516
  9
$TDUUPDATE
 40
2456065.364359850
  9
$TDINDWG
 40
0.8059383912
  9
$TDUSRTIMER
 40
0.8059383912
  9
$USRTIMER
 70
     1
  9
$ANGBASE
 50
0.0
  9
$ANGDIR
 70
     0
  9
$PDMODE
 70
     2
  9
$PDSIZE
 40
5.0
  9
$PLINEWID
 40
0.0
  9
$SPLFRAME
 70
     0
  9
$SPLINETYPE
 70
     6
  9
$SPLINESEGS
 70
     8
  9
$HANDSEED
  5
23F0
  9
$SURFTAB1
 70
     6
  9
$SURFTAB2
 70
     6
  9
$SURFTYPE
 70
     6
  9
$SURFU
 70
     6
  9
$SURFV
 70
     6
  9
$UCSBASE
  2

  9
$UCSNAME
  2

  9
$UCSORG
 10
0.0
 20
0.0
 30
0.0
  9
$UCSXDIR
 10
1.0
 20
0.0
 30
0.0
  9
$UCSYDIR
 10
0.0
 20
1.0
 30
0.0
  9
$UCSORTHOREF
  2

  9
$UCSORTHOVIEW
 70
     0
  9
$UCSORGTOP
 10
0.0
 20
0.0
 30
0.0
  9
$UCSORGBOTTOM
 10
0.0
 20
0.0
 30
0.0
  9
$UCSORGLEFT
 10
0.0
 20
0.0
 30
0.0
  9
$UCSORGRIGHT
 10
0.0
 20
0.0
 30
0.0
  9
$UCSORGFRONT
 10
0.0
 20
0.0
 30
0.0
  9
$UCSORGBACK
 10
0.0
 20
0.0
 30
0.0
  9
$PUCSBASE
  2

  9
$PUCSNAME
  2

  9
$PUCSORG
 10
0.0
 20
0.0
 30
0.0
  9
$PUCSXDIR
 10
1.0
 20
0.0
 30
0.0
  9
$PUCSYDIR
 10
0.0
 20
1.0
 30
0.0
  9
$PUCSORTHOREF
  2

  9
$PUCSORTHOVIEW
 70
     0
  9
$PUCSORGTOP
 10
0.0
 20
0.0
 30
0.0
  9
$PUCSORGBOTTOM
 10
0.0
 20
0.0
 30
0.0
  9
$PUCSORGLEFT
 10
0.0
 20
0.0
 30
0.0
  9
$PUCSORGRIGHT
 10
0.0
 20
0.0
 30
0.0
  9
$PUCSORGFRONT
 10
0.0
 20
0.0
 30
0.0
  9
$PUCSORGBACK
 10
0.0
 20
0.0
 30
0.0
  9
$USERI1
 70
     0
  9
$USERI2
 70
     0
  9
$USERI3
 70
     0
  9
$USERI4
 70
     0
  9
$USERI5
 70
     0
  9
$USERR1
 40
0.0
  9
$USERR2
 40
0.0
  9
$USERR3
 40
0.0
  9
$USERR4
 40
0.0
  9
$USERR5
 40
0.0
  9
$WORLDVIEW
 70
     1
  9
$SHADEDGE
 70
     3
  9
$SHADEDIF
 70
    70
  9
$TILEMODE
 70
     1
  9
$MAXACTVP
 70
    64
  9
$PINSBASE
 10
0.0
 20
0.0
 30
0.0
  9
$PLIMCHECK
 70
     0
  9
$PEXTMIN
 10
1.000000000000000E+20
 20
1.000000000000000E+20
 30
1.000000000000000E+20
  9
$PEXTMAX
 10
-1.000000000000000E+20
 20
-1.000000000000000E+20
 30
-1.000000000000000E+20
  9
$PLIMMIN
 10
0.0
 20
0.0
  9
$PLIMMAX
 10
12.0
 20
9.0
  9
$UNITMODE
 70
     0
  9
$VISRETAIN
 70
     1
  9
$PLINEGEN
 70
     0
  9
$PSLTSCALE
 70
     1
  9
$TREEDEPTH
 70
  3020
  9
$CMLSTYLE
  2
STANDARD
  9
$CMLJUST
 70
     0
  9
$CMLSCALE
 40
1.0
  9
$PROXYGRAPHICS
 70
     1
  9
$MEASUREMENT
 70
     1
  9
$CELWEIGHT
370
    -1
  9
$ENDCAPS
280
     0
  9
$JOINSTYLE
280
     0
  9
$LWDISPLAY
290
     0
  9
$INSUNITS
 70
     0
  9
$HYPERLINKBASE
  1

  9
$STYLESHEET
  1
acad.ctb
  9
$XEDIT
290
     1
  9
$CEPSNTYPE
380
     0
  9
$PSTYLEMODE
290
     1
  9
$FINGERPRINTGUID
  2
{087C4FD5-398D-436E-9424-DE1B49B0CEEE}
  9
$VERSIONGUID
  2
{9330343A-A644-47F2-B64E-D0CEBD1806C6}
  9
$EXTNAMES
290
     1
  9
$PSVPSCALE
 40
0.0
  9
$OLESTARTUP
290
     0
  9
$SORTENTS
280
   127
  9
$INDEXCTL
280
     0
  9
$HIDETEXT
280
     0
  9
$XCLIPFRAME
290
     0
  9
$HALOGAP
280
     0
  9
$OBSCOLOR
 70
   257
  9
$OBSLTYPE
280
     0
  9
$INTERSECTIONDISPLAY
280
     0
  9
$INTERSECTIONCOLOR
 70
   257
  9
$DIMASSOC
280
     1
  9
$PROJECTNAME
  1

  9
$CAMERADISPLAY
290
     0
  9
$LENSLENGTH
 40
50.0
  9
$CAMERAHEIGHT
 40
0.0
  9
$STEPSPERSEC
 40
2.0
  9
$STEPSIZE
 40
6.0
  9
$3DDWFPREC
 40
2.0
  9
$PSOLWIDTH
 40
0.25
  9
$PSOLHEIGHT
 40
4.0
  9
$LOFTANG1
 40
1.570796326794896
  9
$LOFTANG2
 40
1.570796326794896
  9
$LOFTMAG1
 40
0.0
  9
$LOFTMAG2
 40
0.0
  9
$LOFTPARAM
 70
     7
  9
$LOFTNORMALS
280
     1
  9
$LATITUDE
 40
37.795
  9
$LONGITUDE
 40
-122.394
  9
$NORTHDIRECTION
 40
0.0
  9
$TIMEZONE
 70
 -8000
  9
$LIGHTGLYPHDISPLAY
280
     1
  9
$TILEMODELIGHTSYNCH
280
     1
  9
$CMATERIAL
347
CA7
  9
$SOLIDHIST
280
     1
  9
$SHOWHIST
280
     1
  9
$DWFFRAME
280
     2
  9
$DGNFRAME
280
     0
  9
$REALWORLDSCALE
290
     1
  9
$INTERFERECOLOR
 62
     1
  9
$INTERFEREOBJVS
345
CC9
  9
$INTERFEREVPVS
346
CC6
  9
$CSHADOW
280
     0
  9
$SHADOWPLANELOCATION
 40
0.0
  0
ENDSEC
  0
SECTION
  2
CLASSES
  0
CLASS
  1
ACDBDICTIONARYWDFLT
  2
AcDbDictionaryWithDefault
  3
ObjectDBX Classes
 90
        0
 91
        1
280
     0
281
     0
  0
CLASS
  1
DICTIONARYVAR
  2
AcDbDictionaryVar
  3
ObjectDBX Classes
 90
        0
 91
        6
280
     0
281
     0
  0
CLASS
  1
TABLESTYLE
  2
AcDbTableStyle
  3
ObjectDBX Classes
 90
     4095
 91
        1
280
     0
281
     0
  0
CLASS
  1
SORTENTSTABLE
  2
AcDbSortentsTable
  3
ObjectDBX Classes
 90
        0
 91
        3
280
     0
281
     0
  0
CLASS
  1
MATERIAL
  2
AcDbMaterial
  3
ObjectDBX Classes
 90
     1153
 91
        3
280
     0
281
     0
  0
CLASS
  1
VISUALSTYLE
  2
AcDbVisualStyle
  3
ObjectDBX Classes
 90
     4095
 91
       16
280
     0
281
     0
  0
CLASS
  1
SCALE
  2
AcDbScale
  3
ObjectDBX Classes
 90
     1153
 91
       33
280
     0
281
     0
  0
CLASS
  1
MLEADERSTYLE
  2
AcDbMLeaderStyle
  3
ACDB_MLEADERSTYLE_CLASS
 90
     4095
 91
        1
280
     0
281
     0
  0
CLASS
  1
CELLSTYLEMAP
  2
AcDbCellStyleMap
  3
ObjectDBX Classes
 90
     1152
 91
        9
280
     0
281
     0
  0
CLASS
  1
SURFACE
  2
AcDbSurface
  3
ObjectDBX Classes
 90
     4095
 91
        0
280
     0
281
     1
  0
ENDSEC
  0
SECTION
  2
TABLES
  0
TABLE
  2
VPORT
  5
8
330
0
100
AcDbSymbolTable
 70
     1
  0
VPORT
  5
CA5
330
8
100
AcDbSymbolTableRecord
100
AcDbViewportTableRecord
  2
*Active
 70
     0
 10
0.0
 20
0.0
 11
1.0
 21
1.0
 12
97.90733611912552
 22
46.57572650636569
 13
0.0
 23
0.0
 14
1.0
 24
1.0
 15
5.0
 25
5.0
 16
0.0
 26
0.0
 36
1.0
 17
0.0
 27
0.0
 37
0.0
 40
238.6844391714497
 41
2.434535104364326
 42
50.0
 43
0.0
 44
0.0
 50
0.0
 51
0.0
 71
     0
 72
  2000
 73
     1
 74
     1
 75
     0
 76
     0
 77
     0
 78
     2
281
     0
 65
     1
110
0.0
120
0.0
130
0.0
111
1.0
121
0.0
131
0.0
112
0.0
122
1.0
132
0.0
 79
     0
146
0.0
348
CC5
 60
     3
 61
     5
292
     1
282
     1
141
0.0
142
0.0
 63
   250
421
  3355443
  0
ENDTAB
  0
TABLE
  2
LTYPE
  5
5
330
0
100
AcDbSymbolTable
 70
     6
  0
LTYPE
  5
14
330
5
100
AcDbSymbolTableRecord
100
AcDbLinetypeTableRecord
  2
BYBLOCK
 70
     0
  3

 72
    65
 73
     0
 40
0.0
  0
LTYPE
  5
15
330
5
100
AcDbSymbolTableRecord
100
AcDbLinetypeTableRecord
  2
BYLAYER
 70
     0
  3

 72
    65
 73
     0
 40
0.0
  0
LTYPE
  5
16
330
5
100
AcDbSymbolTableRecord
100
AcDbLinetypeTableRecord
  2
CONTINUOUS
 70
     0
  3
Solid line
 72
    65
 73
     0
 40
0.0
  0
LTYPE
  5
1F5
330
5
100
AcDbSymbolTableRecord
100
AcDbLinetypeTableRecord
  2
CENTER
 70
     0
  3
____ _ ____ _ ____ _ ____ _ ____ _ ____ _ ____
 72
    65
 73
     4
 40
0.6
 49
0.375
 74
     0
 49
-0.075
 74
     0
 49
0.075
 74
     0
 49
-0.075
 74
     0
  0
LTYPE
  5
1F6
330
5
100
AcDbSymbolTableRecord
100
AcDbLinetypeTableRecord
  2
HIDDEN
 70
     0
  3
- - - - - - - - - - - - - - - - - - - -
 72
    65
 73
     2
 40
0.2
 49
0.1
 74
     0
 49
-0.1
 74
     0
  0
LTYPE
  5
1F7
330
5
100
AcDbSymbolTableRecord
100
AcDbLinetypeTableRecord
  2
PHANTOM
 70
     0
  3
_____ _ _ _____ _ _ _____ _ _ _____
 72
    65
 73
     6
 40
0.8
 49
0.45
 74
     0
 49
-0.05
 74
     0
 49
0.1
 74
     0
 49
-0.05
 74
     0
 49
0.1
 74
     0
 49
-0.05
 74
     0
  0
LTYPE
  5
1F8
330
5
100
AcDbSymbolTableRecord
100
AcDbLinetypeTableRecord
  2
DOT
 70
     0
  3
. . . . . . . . . . . . . . . . . . . .
 72
    65
 73
     2
 40
0.2
 49
0.1
 74
     0
 49
-0.1
 74
     0
  0
LTYPE
  5
1F9
330
5
100
AcDbSymbolTableRecord
100
AcDbLinetypeTableRecord
  2
DASHED
 70
     0
  3
- - - - - - - - - - - - - - - - - - - -
 72
    65
 73
     2
 40
0.2
 49
0.1
 74
     0
 49
-0.1
 74
     0
  0
ENDTAB
  0
TABLE
  2
LAYER
  5
2
102
{ACAD_XDICTIONARY
360
569
102
}
330
0
100
AcDbSymbolTable
 70
    14
  0
LAYER
  5
10
102
{ACAD_XDICTIONARY
360
D55
102
}
330
2
100
AcDbSymbolTableRecord
100
AcDbLayerTableRecord
  2
0
 70
     0
 62
     7
  6
CONTINUOUS
370
    -3
390
346
347
CB7
  0
LAYER
  5
1FA
102
{ACAD_XDICTIONARY
360
D57
102
}
330
2
100
AcDbSymbolTableRecord
100
AcDbLayerTableRecord
  2
text
 70
     0
 62
     5
  6
CONTINUOUS
370
    -3
390
346
347
CB7
  0
LAYER
  5
1FB
102
{ACAD_XDICTIONARY
360
D59
102
}
330
2
100
AcDbSymbolTableRecord
100
AcDbLayerTableRecord
  2
hidden
 70
     0
 62
     1
  6
HIDDEN
370
    -3
390
346
347
CB7
  0
LAYER
  5
1FC
102
{ACAD_XDICTIONARY
360
D5B
102
}
330
2
100
AcDbSymbolTableRecord
100
AcDbLayerTableRecord
  2
DEFAULT_3
 70
     0
 62
     7
  6
PHANTOM
370
    -3
390
346
347
CB7
  0
LAYER
  5
1FD
102
{ACAD_XDICTIONARY
360
D5D
102
}
330
2
100
AcDbSymbolTableRecord
100
AcDbLayerTableRecord
  2
_2D_hidden_OBJS
 70
     0
 62
     6
  6
CONTINUOUS
370
    -3
390
346
347
CB7
  0
LAYER
  5
1FE
102
{ACAD_XDICTIONARY
360
D5F
102
}
330
2
100
AcDbSymbolTableRecord
100
AcDbLayerTableRecord
  2
3_ALL_SYMBOLS
 70
     0
 62
     9
  6
CONTINUOUS
370
    -3
390
346
347
CB7
  0
LAYER
  5
1FF
102
{ACAD_XDICTIONARY
360
D61
102
}
330
2
100
AcDbSymbolTableRecord
100
AcDbLayerTableRecord
  2
mat1
 70
     0
 62
     3
  6
CONTINUOUS
370
    -3
390
346
347
CB7
  0
LAYER
  5
200
102
{ACAD_XDICTIONARY
360
D63
102
}
330
2
100
AcDbSymbolTableRecord
100
AcDbLayerTableRecord
  2
mat2
 70
     0
 62
     2
  6
CONTINUOUS
370
    -3
390
346
347
CB7
  0
LAYER
  5
201
102
{ACAD_XDICTIONARY
360
D65
102
}
330
2
100
AcDbSymbolTableRecord
100
AcDbLayerTableRecord
  2
ALL_DATUM_PLANES
 70
     0
 62
     7
  6
CONTINUOUS
370
    -3
390
346
347
CB7
  0
LAYER
  5
202
102
{ACAD_XDICTIONARY
360
D67
102
}
330
2
100
AcDbSymbolTableRecord
100
AcDbLayerTableRecord
  2
ALL_SURFS
 70
     0
 62
     7
  6
CONTINUOUS
370
    -3
390
346
347
CB7
  0
LAYER
  5
203
102
{ACAD_XDICTIONARY
360
D69
102
}
330
2
100
AcDbSymbolTableRecord
100
AcDbLayerTableRecord
  2
center
 70
     0
 62
     5
  6
CENTER
370
    -3
390
346
347
CB7
  0
LAYER
  5
34C
330
2
100
AcDbSymbolTableRecord
100
AcDbLayerTableRecord
  2
Defpoints
 70
     0
 62
     7
  6
CONTINUOUS
290
     0
370
    -3
390
346
347
CB7
  0
LAYER
  5
8BC
102
{ACAD_XDICTIONARY
360
D6B
102
}
330
2
100
AcDbSymbolTableRecord
100
AcDbLayerTableRecord
  2
DEFAULT_2
 70
     0
 62
     8
  6
HIDDEN
370
    -3
390
346
347
CB7
  0
LAYER
  5
2103
102
{ACAD_XDICTIONARY
360
2104
102
}
330
2
100
AcDbSymbolTableRecord
100
AcDbLayerTableRecord
  2
FORMAT
 70
     0
 62
     7
  6
CONTINUOUS
370
    -3
390
346
347
CB7
  0
ENDTAB
  0
TABLE
  2
STYLE
  5
3
330
0
100
AcDbSymbolTable
 70
     3
  0
STYLE
  5
11
330
3
100
AcDbSymbolTableRecord
100
AcDbTextStyleTableRecord
  2
STANDARD
 70
     0
 40
0.0
 41
0.8
 50
0.0
 71
     0
 42
3.0
  3
txt
  4

  0
STYLE
  5
2105
330
3
100
AcDbSymbolTableRecord
100
AcDbTextStyleTableRecord
  2
SLDTEXTSTYLE0
 70
     0
 40
0.0
 41
0.75
 50
0.0
 71
     0
 42
0.2
  3
TXT
  4

  0
STYLE
  5
216B
330
3
100
AcDbSymbolTableRecord
100
AcDbTextStyleTableRecord
  2
ARIELBLACK
 70
     0
 40
0.0
 41
1.0
 50
0.0
 71
     0
 42
2.5
  3

  4

1001
ACAD
1000
Arial Black
1071
       34
  0
ENDTAB
  0
TABLE
  2
VIEW
  5
6
330
0
100
AcDbSymbolTable
 70
     0
  0
ENDTAB
  0
TABLE
  2
UCS
  5
7
330
0
100
AcDbSymbolTable
 70
     0
  0
ENDTAB
  0
TABLE
  2
APPID
  5
9
330
0
100
AcDbSymbolTable
 70
     7
  0
APPID
  5
204
330
9
100
AcDbSymbolTableRecord
100
AcDbRegAppTableRecord
  2
ACAD
 70
     0
  0
APPID
  5
424
330
9
100
AcDbSymbolTableRecord
100
AcDbRegAppTableRecord
  2
ACAD_DSTYLE_DIMTEXT_FILL
 70
     0
  0
APPID
  5
843
330
9
100
AcDbSymbolTableRecord
100
AcDbRegAppTableRecord
  2
ACAD_PSEXT
 70
     0
  0
APPID
  5
8BD
330
9
100
AcDbSymbolTableRecord
100
AcDbRegAppTableRecord
  2
DCO15
 70
     0
  0
APPID
  5
CF4
330
9
100
AcDbSymbolTableRecord
100
AcDbRegAppTableRecord
  2
ACAD_MLEADERVER
 70
     0
  0
APPID
  5
1DB5
330
9
100
AcDbSymbolTableRecord
100
AcDbRegAppTableRecord
  2
ACAD_EXEMPT_FROM_CAD_STANDARDS
 70
     0
  0
APPID
  5
22CE
330
9
100
AcDbSymbolTableRecord
100
AcDbRegAppTableRecord
  2
ACAD_DSTYLE_DIMRADIAL_EXTENSION
 70
     0
  0
ENDTAB
  0
TABLE
  2
DIMSTYLE
  5
A
330
0
100
AcDbSymbolTable
 70
     5
100
AcDbDimStyleTable
 71
     5
340
1DC1
340
21D
340
220
340
21E
340
21F
  0
DIMSTYLE
105
21D
102
{ACAD_REACTORS
330
2293
330
22A1
102
}
330
A
100
AcDbSymbolTableRecord
100
AcDbDimStyleTableRecord
  2
STANDARD
 70
     0
 41
3.0
 47
0.01
 48
0.01
 71
     1
140
2.0
271
     2
272
     2
340
11
341
205
342
205
343
205
344
205
  0
DIMSTYLE
105
21E
330
A
100
AcDbSymbolTableRecord
100
AcDbDimStyleTableRecord
  2
DIMSTYLE_1
 70
     0
 41
3.0
 47
0.01
 48
0.01
140
2.0
144
2.0
271
     2
272
     2
340
11
341
205
342
205
343
205
344
205
  0
DIMSTYLE
105
21F
330
A
100
AcDbSymbolTableRecord
100
AcDbDimStyleTableRecord
  2
DIMSTYLE_2
 70
     0
 41
3.0
 47
0.01
 48
0.01
140
2.0
144
2.0
271
     2
272
     2
340
11
341
205
342
205
343
205
344
205
  0
DIMSTYLE
105
220
330
A
100
AcDbSymbolTableRecord
100
AcDbDimStyleTableRecord
  2
DIMSTYLE_3
 70
     0
 41
3.0
 47
0.01
 48
0.01
140
2.0
144
2.0
271
     2
272
     2
340
11
341
205
342
205
343
205
344
205
  0
DIMSTYLE
105
1DC1
102
{ACAD_REACTORS
330
22FB
102
}
330
A
100
AcDbSymbolTableRecord
100
AcDbDimStyleTableRecord
  2
ISO-25
 70
     0
 41
2.5
 42
0.625
 43
3.75
 44
1.25
 73
     0
 74
     0
 77
     1
 78
     8
140
2.5
141
2.5
143
0.03937007874016
147
0.625
171
     3
172
     1
271
     2
272
     2
274
     3
278
    44
283
     0
284
     8
340
11
  0
ENDTAB
  0
TABLE
  2
BLOCK_RECORD
  5
1
330
0
100
AcDbSymbolTable
 70
    10
  0
BLOCK_RECORD
  5
1F
102
{ACAD_XDICTIONARY
360
41C
102
}
330
1
100
AcDbSymbolTableRecord
100
AcDbBlockTableRecord
  2
*MODEL_SPACE
340
349
 70
     0
280
     1
281
     0
  0
BLOCK_RECORD
  5
1B
330
1
100
AcDbSymbolTableRecord
100
AcDbBlockTableRecord
  2
*PAPER_SPACE
340
34A
 70
     0
280
     1
281
     0
  0
BLOCK_RECORD
  5
205
330
1
100
AcDbSymbolTableRecord
100
AcDbBlockTableRecord
  2
_ARROW_FILLED
340
0
102
{BLKREFS
331
22F8
331
23CE
331
23CF
331
23D8
331
23D9
102
}
 70
     0
280
     1
281
     0
  0
BLOCK_RECORD
  5
206
330
1
100
AcDbSymbolTableRecord
100
AcDbBlockTableRecord
  2
GLOBAL_TOLERANCE_BL0
340
0
 70
     0
280
     1
281
     0
  0
BLOCK_RECORD
  5
3E1
330
1
100
AcDbSymbolTableRecord
100
AcDbBlockTableRecord
  2
BORDER
340
0
310
2800000020000000200000000100080000000000000400000000000000000000000000000000000000000000000080000080000000808000800000008000800080800000C0C0C000C0DCC000F0CAA6000020400000206000002080000020A0000020C0000020E00000400000004020000040400000406000004080000040A0
310
000040C0000040E00000600000006020000060400000606000006080000060A0000060C0000060E00000800000008020000080400000806000008080000080A0000080C0000080E00000A0000000A0200000A0400000A0600000A0800000A0A00000A0C00000A0E00000C0000000C0200000C0400000C0600000C0800000C0
310
A00000C0C00000C0E00000E0000000E0200000E0400000E0600000E0800000E0A00000E0C00000E0E00040000000400020004000400040006000400080004000A0004000C0004000E00040200000402020004020400040206000402080004020A0004020C0004020E000404000004040200040404000404060004040800040
310
40A0004040C0004040E00040600000406020004060400040606000406080004060A0004060C0004060E00040800000408020004080400040806000408080004080A0004080C0004080E00040A0000040A0200040A0400040A0600040A0800040A0A00040A0C00040A0E00040C0000040C0200040C0400040C0600040C08000
310
40C0A00040C0C00040C0E00040E0000040E0200040E0400040E0600040E0800040E0A00040E0C00040E0E00080000000800020008000400080006000800080008000A0008000C0008000E00080200000802020008020400080206000802080008020A0008020C0008020E00080400000804020008040400080406000804080
310
008040A0008040C0008040E00080600000806020008060400080606000806080008060A0008060C0008060E00080800000808020008080400080806000808080008080A0008080C0008080E00080A0000080A0200080A0400080A0600080A0800080A0A00080A0C00080A0E00080C0000080C0200080C0400080C0600080C0
310
800080C0A00080C0C00080C0E00080E0000080E0200080E0400080E0600080E0800080E0A00080E0C00080E0E000C0000000C0002000C0004000C0006000C0008000C000A000C000C000C000E000C0200000C0202000C0204000C0206000C0208000C020A000C020C000C020E000C0400000C0402000C0404000C0406000C0
310
408000C040A000C040C000C040E000C0600000C0602000C0604000C0606000C0608000C060A000C060C000C060E000C0800000C0802000C0804000C0806000C0808000C080A000C080C000C080E000C0A00000C0A02000C0A04000C0A06000C0A08000C0A0A000C0A0C000C0A0E000C0C00000C0C02000C0C04000C0C06000
310
C0C08000C0C0A000F0FBFF00A4A0A000808080000000FF0000FF000000FFFF00FF000000FF00FF00FFFF0000FFFFFF0000000000000000000000000000000000000000000000000000000000000000000000000000000000000000000000000000000000000000000000000000000000000000000000000000000000000000
310
000000000000000000000000000000000000000000000000000000000000000000000000000000000000000000000000000000000000000000000000000000000000000000000000000000000000000000000000000000000000000000000000000000000000000000000000000000000000FCFCFCFCFCFCFCFCFCFCFCFCFC
310
FCFCFCFCFCFCFCFCFCFCFCFCFCFCFCFCFC0000FCFC00000000000000FC00000000FCFCFCFC00FCFCFCFCFCFCFCFCFCFCFC0000FCFC00000000000000FCFCFCFCFCFCFCFCFCFCFCFCFCFCFCFCFCFCFCFCFC0000FCFC0000000000000000000000000000000000000000000000FCFCFCFCFC0000FCFC00000000000000000000
310
00000000000000000000000000000000FCFC0000FCFC0000000000000000000000000000000000000000000000000000FCFC0000FCFC0000000000000000000000000000000000000000000000000000FCFC0000FCFC0000000000000000000000000000000000000000000000000000FCFC0000FCFC000000000000000000
310
0000000000000000000000000000000000FCFC0000FCFC0000000000000000000000000000000000000000000000000000FCFC0000FCFC0000000000000000000000000000000000000000000000000000FCFC0000FCFC0000000000000000000000000000000000000000000000000000FCFC0000FCFC0000000000000000
310
000000000000000000000000000000000000FCFC0000FCFC0000000000000000000000000000000000000000000000000000FCFC0000FCFC0000000000000000000000000000000000000000000000000000FCFC0000FCFC0000000000000000000000000000000000000000000000000000FCFC0000FCFC00000000000000
310
00000000000000000000000000000000000000FCFC0000FCFC0000000000000000000000000000000000000000000000000000FCFC0000FCFC0000000000000000000000000000000000000000000000000000FCFC0000FCFCFCFCFCFCFCFCFCFCFCFCFCFCFCFCFCFCFCFCFCFCFCFCFCFCFCFCFCFC00000000000000000000
310
00000000000000000000000000000000000000000000000000000000000000000000000000000000000000000000000000000000000000000000000000000000000000000000000000000000000000000000000000000000000000000000000000000000000000000000000000000000000000000000000000000000000000
310
0000000000000000000000000000000000000000000000000000000000000000000000000000000000000000000000000000000000000000
102
{BLKREFS
331
85C
102
}
 70
     0
280
     1
281
     0
  0
BLOCK_RECORD
  5
587
102
{ACAD_XDICTIONARY
360
58D
102
}
330
1
100
AcDbSymbolTableRecord
100
AcDbBlockTableRecord
  2
A$C116F70D8
340
0
 70
     0
280
     1
281
     0
  0
BLOCK_RECORD
  5
845
102
{ACAD_XDICTIONARY
360
847
102
}
330
1
100
AcDbSymbolTableRecord
100
AcDbBlockTableRecord
  2
A$C6AAE2749
340
0
102
{BLKREFS
331
85D
102
}
 70
     0
280
     1
281
     0
  0
BLOCK_RECORD
  5
859
330
1
100
AcDbSymbolTableRecord
100
AcDbBlockTableRecord
  2
NEWBORDER
340
0
310
2800000020000000200000000100080000000000000400000000000000000000000000000000000000000000000080000080000000808000800000008000800080800000C0C0C000C0DCC000F0CAA6000020400000206000002080000020A0000020C0000020E00000400000004020000040400000406000004080000040A0
310
000040C0000040E00000600000006020000060400000606000006080000060A0000060C0000060E00000800000008020000080400000806000008080000080A0000080C0000080E00000A0000000A0200000A0400000A0600000A0800000A0A00000A0C00000A0E00000C0000000C0200000C0400000C0600000C0800000C0
310
A00000C0C00000C0E00000E0000000E0200000E0400000E0600000E0800000E0A00000E0C00000E0E00040000000400020004000400040006000400080004000A0004000C0004000E00040200000402020004020400040206000402080004020A0004020C0004020E000404000004040200040404000404060004040800040
310
40A0004040C0004040E00040600000406020004060400040606000406080004060A0004060C0004060E00040800000408020004080400040806000408080004080A0004080C0004080E00040A0000040A0200040A0400040A0600040A0800040A0A00040A0C00040A0E00040C0000040C0200040C0400040C0600040C08000
310
40C0A00040C0C00040C0E00040E0000040E0200040E0400040E0600040E0800040E0A00040E0C00040E0E00080000000800020008000400080006000800080008000A0008000C0008000E00080200000802020008020400080206000802080008020A0008020C0008020E00080400000804020008040400080406000804080
310
008040A0008040C0008040E00080600000806020008060400080606000806080008060A0008060C0008060E00080800000808020008080400080806000808080008080A0008080C0008080E00080A0000080A0200080A0400080A0600080A0800080A0A00080A0C00080A0E00080C0000080C0200080C0400080C0600080C0
310
800080C0A00080C0C00080C0E00080E0000080E0200080E0400080E0600080E0800080E0A00080E0C00080E0E000C0000000C0002000C0004000C0006000C0008000C000A000C000C000C000E000C0200000C0202000C0204000C0206000C0208000C020A000C020C000C020E000C0400000C0402000C0404000C0406000C0
310
408000C040A000C040C000C040E000C0600000C0602000C0604000C0606000C0608000C060A000C060C000C060E000C0800000C0802000C0804000C0806000C0808000C080A000C080C000C080E000C0A00000C0A02000C0A04000C0A06000C0A08000C0A0A000C0A0C000C0A0E000C0C00000C0C02000C0C04000C0C06000
310
C0C08000C0C0A000F0FBFF00A4A0A000808080000000FF0000FF000000FFFF00FF000000FF00FF00FFFF0000FFFFFF0000000000000000000000000000000000000000000000000000000000000000000000000000000000000000000000000000000000000000000000000000000000000000000000000000000000000000
310
000000000000000000000000000000000000000000000000000000000000000000000000000000000000000000000000000000000000000000000000000000000000000000000000000000000000000000000000000000000000000000000000000000000000000000000000000000000000FCFCFCFCFCFCFCFCFCFCFCFCFC
310
FCFCFCFCFCFCFCFCFCFCFCFCFCFCFCFCFC0000FCFC00888888888800FBFBFB0000FCFCFCFC00FCFCFCFCFCFCFCFCFCFCFC0000FCFCFCFCFCFCFCFCFCFBFBFBFCFCFCFCFCFCFCFCFCFCFCFCFCFCFCFCFCFC0000FCFC0000000000000000000000000000000000000000000000FCFCFCFCFC0000FCFC00000000000000000000
310
00000000000000000000000000000000FCFC0000FCFC0000000000000000000000000000000000000000000000000000FCFC0000FCFC0000000000000000000000000000000000000000000000000000FCFC0000FCFC0000000000000000000000000000000000000000000000000000FCFC0000FCFC000000000000000000
310
0000000000000000000000000000000000FCFC0000FCFC0000000000000000000000000000000000000000000000000000FCFC0000FCFC0000000000000000000000000000000000000000000000000000FCFC0000FCFC0000000000000000000000000000000000000000000000000000FCFC0000FCFC0000000000000000
310
000000000000000000000000000000000000FCFC0000FCFC0000000000000000000000000000000000000000000000000000FCFC0000FCFC0000000000000000000000000000000000000000000000000000FCFC0000FCFC0000000000000000000000000000000000000000000000000000FCFC0000FCFC00000000000000
310
00000000000000000000000000000000000000FCFC0000FCFC0000000000000000000000000000000000000000000000000000FCFC0000FCFC0000000000000000000000000000000000000000000000000000FCFC0000FCFCFCFCFCFCFCFCFCFCFCFCFCFCFCFCFCFCFCFCFCFCFCFCFCFCFCFCFCFC00000000000000000000
310
00000000000000000000000000000000000000000000000000000000000000000000000000000000000000000000000000000000000000000000000000000000000000000000000000000000000000000000000000000000000000000000000000000000000000000000000000000000000000000000000000000000000000
310
0000000000000000000000000000000000000000000000000000000000000000000000000000000000000000000000000000000000000000
 70
     0
280
     1
281
     0
  0
BLOCK_RECORD
  5
EAF
330
1
100
AcDbSymbolTableRecord
100
AcDbBlockTableRecord
  2
Cborder
340
0
310
2800000020000000200000000100080000000000000400000000000000000000000000000000000000000000000080000080000000808000800000008000800080800000C0C0C000C0DCC000F0CAA6000020400000206000002080000020A0000020C0000020E00000400000004020000040400000406000004080000040A0
310
000040C0000040E00000600000006020000060400000606000006080000060A0000060C0000060E00000800000008020000080400000806000008080000080A0000080C0000080E00000A0000000A0200000A0400000A0600000A0800000A0A00000A0C00000A0E00000C0000000C0200000C0400000C0600000C0800000C0
310
A00000C0C00000C0E00000E0000000E0200000E0400000E0600000E0800000E0A00000E0C00000E0E00040000000400020004000400040006000400080004000A0004000C0004000E00040200000402020004020400040206000402080004020A0004020C0004020E000404000004040200040404000404060004040800040
310
40A0004040C0004040E00040600000406020004060400040606000406080004060A0004060C0004060E00040800000408020004080400040806000408080004080A0004080C0004080E00040A0000040A0200040A0400040A0600040A0800040A0A00040A0C00040A0E00040C0000040C0200040C0400040C0600040C08000
310
40C0A00040C0C00040C0E00040E0000040E0200040E0400040E0600040E0800040E0A00040E0C00040E0E00080000000800020008000400080006000800080008000A0008000C0008000E00080200000802020008020400080206000802080008020A0008020C0008020E00080400000804020008040400080406000804080
310
008040A0008040C0008040E00080600000806020008060400080606000806080008060A0008060C0008060E00080800000808020008080400080806000808080008080A0008080C0008080E00080A0000080A0200080A0400080A0600080A0800080A0A00080A0C00080A0E00080C0000080C0200080C0400080C0600080C0
310
800080C0A00080C0C00080C0E00080E0000080E0200080E0400080E0600080E0800080E0A00080E0C00080E0E000C0000000C0002000C0004000C0006000C0008000C000A000C000C000C000E000C0200000C0202000C0204000C0206000C0208000C020A000C020C000C020E000C0400000C0402000C0404000C0406000C0
310
408000C040A000C040C000C040E000C0600000C0602000C0604000C0606000C0608000C060A000C060C000C060E000C0800000C0802000C0804000C0806000C0808000C080A000C080C000C080E000C0A00000C0A02000C0A04000C0A06000C0A08000C0A0A000C0A0C000C0A0E000C0C00000C0C02000C0C04000C0C06000
310
C0C08000C0C0A000F0FBFF00A4A0A000808080000000FF0000FF000000FFFF00FF000000FF00FF00FFFF0000FFFFFF0000000000000000000000000000000000000000000000000000000000000000000000000000000000000000000000000000000000000000000000000000000000000000000000000000000000000000
310
00000000000000000000000000000000000000000000000000000000000000000000000000000000000000000000000000000000000000000000000000000000000000000000000000000000000000000000FCFCFCFCFCFCFCFCFCFCFCFCFCFCFCFCFCFCFCFCFCFCFCFCFCFCFCFCFCFC0000FCFCFCFCFCFCFCFCFCFCFCFCFC
310
FCFCFCFCFCFCFCFCFCFCFCFCFCFCFCFCFC0000FCFC00000000000000FC00000000FCFCFCFCFCFCFCFCFCFCFCFCFCFCFCFC0000FCFCFCFCFCFCFCFCFCFCFCFCFCFCFCFCFCFCFCFCFCFCFCFCFCFCFCFCFCFC0000FCFC0000000000000000000000000000000000000000000000000000FCFC0000FCFC00000000000000000000
310
00000000000000000000000000000000FCFC0000FCFC0000000000000000000000000000000000000000000000000000FCFC0000FCFC0000000000000000000000000000000000000000000000000000FCFC0000FCFC0000000000000000000000000000000000000000000000000000FCFC0000FCFC000000000000000000
310
0000000000000000000000000000000000FCFC0000FCFC0000000000000000000000000000000000000000000000000000FCFC0000FCFC0000000000000000000000000000000000000000000000000000FCFC0000FCFC0000000000000000000000000000000000000000000000000000FCFC0000FCFC0000000000000000
310
000000000000000000000000000000000000FCFC0000FCFC0000000000000000000000000000000000000000000000000000FCFC0000FCFC0000000000000000000000000000000000000000000000000000FCFC0000FCFC0000000000000000000000000000000000000000000000000000FCFC0000FCFC00000000000000
310
00000000000000000000000000000000000000FCFC0000FCFC0000000000000000000000000000000000000000000000000000FCFC0000FCFC0000000000000000000000000000000000000000000000000000FCFC0000FCFCFCFCFCFCFCFCFCFCFCFCFCFCFCFCFCFCFCFCFCFCFCFCFCFCFCFCFCFC0000FCFCFCFCFCFCFCFC
310
FCFCFCFCFCFCFCFCFCFCFCFCFCFCFCFCFCFCFCFCFCFC000000000000000000000000000000000000000000000000000000000000000000000000000000000000000000000000000000000000000000000000000000000000000000000000000000000000000000000000000000000000000000000000000000000000000000
310
0000000000000000000000000000000000000000000000000000000000000000000000000000000000000000000000000000000000000000
 70
     0
280
     1
281
     0
  0
BLOCK_RECORD
  5
2294
330
1
100
AcDbSymbolTableRecord
100
AcDbBlockTableRecord
  2
*D7
340
0
 70
     0
280
     1
281
     0
  0
BLOCK_RECORD
  5
22A2
330
1
100
AcDbSymbolTableRecord
100
AcDbBlockTableRecord
  2
*D8
340
0
 70
     0
280
     1
281
     0
  0
BLOCK_RECORD
  5
22FC
330
1
100
AcDbSymbolTableRecord
100
AcDbBlockTableRecord
  2
*D9
340
0
 70
     0
280
     1
281
     0
  0
ENDTAB
  0
ENDSEC
  0
SECTION
  2
BLOCKS
  0
BLOCK
  5
20
330
1F
100
AcDbEntity
  8
0
100
AcDbBlockBegin
  2
*MODEL_SPACE
 70
     0
 10
0.0
 20
0.0
 30
0.0
  3
*MODEL_SPACE
  1

  0
ENDBLK
  5
21
330
1F
100
AcDbEntity
  8
0
100
AcDbBlockEnd
  0
BLOCK
  5
1C
330
1B
100
AcDbEntity
 67
     1
  8
0
100
AcDbBlockBegin
  2
*PAPER_SPACE
 70
     0
 10
0.0
 20
0.0
 30
0.0
  3
*PAPER_SPACE
  1

  0
ENDBLK
  5
1D
330
1B
100
AcDbEntity
 67
     1
  8
0
100
AcDbBlockEnd
  0
BLOCK
  5
29A
330
205
100
AcDbEntity
  8
0
100
AcDbBlockBegin
  2
_ARROW_FILLED
 70
     0
 10
0.0
 20
0.0
 30
0.0
  3
_ARROW_FILLED
  1

  0
SOLID
  5
29B
330
205
100
AcDbEntity
  8
0
  6
ByBlock
 62
     0
100
AcDbTrace
 10
0.0
 20
0.0
 30
0.0
 11
-1.0
 21
0.1666666667
 31
0.0
 12
-1.0
 22
-0.1666666667
 32
0.0
 13
-1.0
 23
-0.1666666667
 33
0.0
  0
ENDBLK
  5
29C
330
205
100
AcDbEntity
  8
0
  6
ByBlock
 62
     0
100
AcDbBlockEnd
  0
BLOCK
  5
221
330
206
100
AcDbEntity
  8
0
  6
Continuous
 62
     2
100
AcDbBlockBegin
  2
GLOBAL_TOLERANCE_BL0
 70
     0
 10
129.8483641075
 20
33.8942401547
 30
0.0
  3
GLOBAL_TOLERANCE_BL0
  1

  0
TEXT
  5
222
330
206
100
AcDbEntity
  8
0
  6
Continuous
 62
     2
100
AcDbText
 10
127.2705496932
 20
33.686688431
 30
0.0
 40
2.0
  1
GLOBAL TOLERANCES
 41
0.8
100
AcDbText
  0
TEXT
  5
223
330
206
100
AcDbEntity
  8
0
  6
Continuous
 62
     2
100
AcDbText
 10
127.2705496932
 20
30.686688431
 30
0.0
 40
2.0
  1
 
 41
0.8
100
AcDbText
  0
TEXT
  5
224
330
206
100
AcDbEntity
  8
0
  6
Continuous
 62
     2
100
AcDbText
 10
127.2705496932
 20
27.686688431
 30
0.0
 40
2.0
  1
0.000    0.10
 41
0.8
100
AcDbText
  0
TEXT
  5
225
330
206
100
AcDbEntity
  8
0
  6
Continuous
 62
     2
100
AcDbText
 10
127.2705496932
 20
24.686688431
 30
0.0
 40
2.0
  1
0.00     0.15
 41
0.8
100
AcDbText
  0
TEXT
  5
226
330
206
100
AcDbEntity
  8
0
  6
Continuous
 62
     2
100
AcDbText
 10
127.2705496932
 20
21.686688431
 30
0.0
 40
2.0
  1
0.0  +/- 0.25
 41
0.8
100
AcDbText
  0
TEXT
  5
227
330
206
100
AcDbEntity
  8
0
  6
Continuous
 62
     2
100
AcDbText
 10
127.2705496932
 20
18.686688431
 30
0.0
 40
2.0
  1
0        0.50
 41
0.8
100
AcDbText
  0
TEXT
  5
228
330
206
100
AcDbEntity
  8
0
  6
Continuous
 62
     2
100
AcDbText
 10
127.2705496932
 20
15.686688431
 30
0.0
 40
2.0
  1
 
 41
0.8
100
AcDbText
  0
TEXT
  5
229
330
206
100
AcDbEntity
  8
0
  6
Continuous
 62
     2
100
AcDbText
 10
127.2705496932
 20
12.686688431
 30
0.0
 40
2.0
  1
0.00
 41
0.8
100
AcDbText
  0
TEXT
  5
22A
330
206
100
AcDbEntity
  8
0
  6
Continuous
 62
     2
100
AcDbText
 10
133.6705496932
 20
12.686688431
 30
0.0
 40
2.0
  1
%%d  +/- 0.50
 41
0.7878787879000001
100
AcDbText
  0
TEXT
  5
22B
330
206
100
AcDbEntity
  8
0
  6
Continuous
 62
     2
100
AcDbText
 10
151.0038830265
 20
12.686688431
 30
0.0
 40
2.0
  1
%%d
 41
0.6666666667
100
AcDbText
  0
LINE
  5
22C
330
206
100
AcDbEntity
  8
0
  6
Continuous
 62
     7
100
AcDbLine
 10
105.5386785217
 20
55.1017918783
 30
0.0
 11
105.2261785217
 21
54.7892918783
 31
0.0
  0
LINE
  5
22D
330
206
100
AcDbEntity
  8
0
  6
Continuous
 62
     7
100
AcDbLine
 10
105.5386785217
 20
54.7892918783
 30
0.0
 11
105.2261785217
 21
55.1017918783
 31
0.0
  0
ENDBLK
  5
22E
330
206
100
AcDbEntity
  8
0
  6
ByBlock
 62
     0
100
AcDbBlockEnd
  0
BLOCK
  5
3E2
330
3E1
100
AcDbEntity
  8
0
100
AcDbBlockBegin
  2
BORDER
 70
     0
 10
0.0
 20
0.0
 30
0.0
  3
BORDER
  1

  0
TEXT
  5
801
330
3E1
100
AcDbEntity
  8
0
  6
Continuous
 62
     5
100
AcDbText
 10
186.7888380555339
 20
-59.85265528298956
 30
0.0
 40
2.63671875
  1
HAWK I.R. INTERNATIONAL LTD.
100
AcDbText
  0
TEXT
  5
802
330
3E1
100
AcDbEntity
  8
0
  6
Continuous
 62
     5
100
AcDbText
 10
186.7888380555339
 20
-64.07140528298956
 30
0.0
 40
2.63671875
  1
117 HIGH STREET
100
AcDbText
  0
TEXT
  5
803
330
3E1
100
AcDbEntity
  8
0
  6
Continuous
 62
     5
100
AcDbText
 10
186.7888380555339
 20
-68.29015528298956
 30
0.0
 40
2.63671875
  1
MARSKE-BY-SEA
100
AcDbText
  0
TEXT
  5
804
330
3E1
100
AcDbEntity
  8
0
  6
Continuous
 62
     5
100
AcDbText
 10
186.7888380555339
 20
-72.50890528298956
 30
0.0
 40
2.63671875
  1
TS11 6JX
100
AcDbText
  0
TEXT
  5
805
330
3E1
100
AcDbEntity
  8
0
  6
Continuous
 62
     5
100
AcDbText
 10
186.7888380555339
 20
-76.72765528298956
 30
0.0
 40
2.63671875
  1
Tel :- 0044 (0) 1642 497000
100
AcDbText
  0
TEXT
  5
806
330
3E1
100
AcDbEntity
  8
0
  6
Continuous
 62
     5
100
AcDbText
 10
186.7888380555339
 20
-80.94640528298956
 30
0.0
 40
2.63671875
  1
Fax :- 0044 (0) 1642 497111
100
AcDbText
  0
LINE
  5
807
330
3E1
100
AcDbEntity
  8
0
  6
Continuous
 62
     5
100
AcDbLine
 10
282.9976244781338
 20
-54.71063487830956
 30
0.0
 11
434.1976244781339
 21
-54.71063487830956
 31
0.0
  0
LINE
  5
808
330
3E1
100
AcDbEntity
  8
0
  6
Continuous
 62
     5
100
AcDbLine
 10
282.9976244781338
 20
-54.71063487830956
 30
0.0
 11
282.9976244781338
 21
-86.51063487830956
 31
0.0
  0
LINE
  5
809
330
3E1
100
AcDbEntity
  8
0
  6
Continuous
 62
     5
100
AcDbLine
 10
282.9976244781338
 20
-60.11063487830956
 30
0.0
 11
434.1976244781339
 21
-60.11063487830956
 31
0.0
  0
LINE
  5
80A
330
3E1
100
AcDbEntity
  8
0
  6
Continuous
 62
     5
100
AcDbLine
 10
282.9976244781338
 20
-65.51063487830956
 30
0.0
 11
434.1976244781339
 21
-65.51063487830956
 31
0.0
  0
LINE
  5
80B
330
3E1
100
AcDbEntity
  8
0
  6
Continuous
 62
     5
100
AcDbLine
 10
282.9976244781338
 20
-70.91063487830957
 30
0.0
 11
434.1976244781339
 21
-70.91063487830957
 31
0.0
  0
LINE
  5
80C
330
3E1
100
AcDbEntity
  8
0
  6
Continuous
 62
     5
100
AcDbLine
 10
282.9976244781338
 20
-76.31063487830957
 30
0.0
 11
434.1976244781339
 21
-76.31063487830957
 31
0.0
  0
LINE
  5
80D
330
3E1
100
AcDbEntity
  8
0
  6
Continuous
 62
     5
100
AcDbLine
 10
282.9976244781338
 20
-81.71063487830956
 30
0.0
 11
434.1976244781339
 21
-81.71063487830956
 31
0.0
  0
LINE
  5
80E
330
3E1
100
AcDbEntity
  8
0
  6
Continuous
 62
     5
100
AcDbLine
 10
282.9976244781338
 20
-86.51063487830956
 30
0.0
 11
434.1976244781339
 21
-86.51063487830956
 31
0.0
  0
LINE
  5
80F
330
3E1
100
AcDbEntity
  8
0
  6
Continuous
 62
     5
100
AcDbLine
 10
298.5976244781339
 20
-54.71063487830956
 30
0.0
 11
298.5976244781339
 21
-86.51063487830956
 31
0.0
  0
LINE
  5
810
330
3E1
100
AcDbEntity
  8
0
  6
Continuous
 62
     5
100
AcDbLine
 10
309.3976244781339
 20
-54.71063487830956
 30
0.0
 11
309.3976244781339
 21
-86.51063487830956
 31
0.0
  0
LINE
  5
811
330
3E1
100
AcDbEntity
  8
0
  6
Continuous
 62
     5
100
AcDbLine
 10
320.1976244781339
 20
-54.71063487830956
 30
0.0
 11
320.1976244781339
 21
-86.51063487830956
 31
0.0
  0
LINE
  5
812
330
3E1
100
AcDbEntity
  8
0
  6
Continuous
 62
     5
100
AcDbLine
 10
330.9976244781339
 20
-54.71063487830956
 30
0.0
 11
330.9976244781339
 21
-86.51063487830956
 31
0.0
  0
LINE
  5
813
330
3E1
100
AcDbEntity
  8
0
  6
Continuous
 62
     5
100
AcDbLine
 10
341.7976244781339
 20
-54.71063487830956
 30
0.0
 11
341.7976244781339
 21
-86.51063487830956
 31
0.0
  0
LINE
  5
814
330
3E1
100
AcDbEntity
  8
0
  6
Continuous
 62
     5
100
AcDbLine
 10
383.7976244781339
 20
-54.71063487830956
 30
0.0
 11
383.7976244781339
 21
-86.51063487830956
 31
0.0
  0
LINE
  5
815
330
3E1
100
AcDbEntity
  8
0
  6
Continuous
 62
     5
100
AcDbLine
 10
434.1976244781339
 20
-54.71063487830956
 30
0.0
 11
434.1976244781339
 21
-86.51063487830956
 31
0.0
  0
TEXT
  5
816
330
3E1
100
AcDbEntity
  8
0
  6
Continuous
 62
     5
100
AcDbText
 10
287.2776244781339
 20
-58.61063487830956
 30
0.0
 40
2.399999999999999
  1
Date
 41
0.8
 72
     1
 11
290.7976244781339
 21
-58.61063487830956
 31
0.0
100
AcDbText
  0
TEXT
  5
817
330
3E1
100
AcDbEntity
  8
0
  6
Continuous
 62
     5
100
AcDbText
 10
301.4376244781339
 20
-58.61063487830956
 30
0.0
 40
2.399999999999999
  1
Rev
 41
0.8
 72
     1
 11
303.9976244781338
 21
-58.61063487830956
 31
0.0
100
AcDbText
  0
TEXT
  5
818
330
3E1
100
AcDbEntity
  8
0
  6
Continuous
 62
     5
100
AcDbText
 10
312.2376244781339
 20
-58.61063487830956
 30
0.0
 40
2.399999999999999
  1
Drn
 41
0.8
 72
     1
 11
314.7976244781339
 21
-58.61063487830956
 31
0.0
100
AcDbText
  0
TEXT
  5
819
330
3E1
100
AcDbEntity
  8
0
  6
Continuous
 62
     5
100
AcDbText
 10
323.0376244781339
 20
-58.61063487830956
 30
0.0
 40
2.399999999999999
  1
Chk
 41
0.8
 72
     1
 11
325.5976244781339
 21
-58.61063487830956
 31
0.0
100
AcDbText
  0
TEXT
  5
81A
330
3E1
100
AcDbEntity
  8
0
  6
Continuous
 62
     5
100
AcDbText
 10
333.8376244781339
 20
-58.61063487830956
 30
0.0
 40
2.399999999999999
  1
App
 41
0.8
 72
     1
 11
336.3976244781339
 21
-58.61063487830956
 31
0.0
100
AcDbText
  0
TEXT
  5
81B
330
3E1
100
AcDbEntity
  8
0
  6
Continuous
 62
     5
100
AcDbText
 10
353.837624478134
 20
-58.61063487830956
 30
0.0
 40
2.399999999999999
  1
Description
 41
0.8
 72
     1
 11
362.7976244781339
 21
-58.61063487830956
 31
0.0
100
AcDbText
  0
TEXT
  5
81C
330
3E1
100
AcDbEntity
  8
0
  6
Continuous
 62
     5
100
AcDbText
 10
405.6376244781338
 20
-58.61063487830956
 30
0.0
 40
2.399999999999999
  1
Title
 41
0.8
 72
     1
 11
408.9976244781338
 21
-58.61063487830956
 31
0.0
100
AcDbText
  0
TEXT
  5
81D
330
3E1
100
AcDbEntity
  8
0
  6
Continuous
 62
     5
100
AcDbText
 10
285.1976244781339
 20
-63.86063487830957
 30
0.0
 40
2.1
  1
00/00/00
 41
0.8
 72
     1
 11
290.7976244781339
 21
-63.86063487830957
 31
0.0
100
AcDbText
  0
TEXT
  5
81E
330
3E1
100
AcDbEntity
  8
0
  6
Continuous
 62
     5
100
AcDbText
 10
303.3576244781339
 20
-64.01063487830956
 30
0.0
 40
2.399999999999999
  1
A
 41
0.8
 72
     1
 11
303.9976244781338
 21
-64.01063487830956
 31
0.0
100
AcDbText
  0
TEXT
  5
81F
330
3E1
100
AcDbEntity
  8
0
  6
Continuous
 62
     5
100
AcDbText
 10
313.1976244781339
 20
-64.01063487830956
 30
0.0
 40
2.399999999999999
  1
RK
 41
0.8
 72
     1
 11
314.7976244781339
 21
-64.01063487830956
 31
0.0
100
AcDbText
  0
TEXT
  5
820
330
3E1
100
AcDbEntity
  8
0
  6
Continuous
 62
     5
100
AcDbText
 10
323.0376244781339
 20
-64.01063487830956
 30
0.0
 40
2.399999999999999
  1
GRH
 41
0.8
 72
     1
 11
325.5976244781339
 21
-64.01063487830956
 31
0.0
100
AcDbText
  0
TEXT
  5
821
330
3E1
100
AcDbEntity
  8
0
  6
Continuous
 62
     5
100
AcDbText
 10
351.7576244781339
 20
-64.01063487830956
 30
0.0
 40
2.399999999999999
  1
Original Issue
 41
0.8
 72
     1
 11
362.7976244781339
 21
-64.01063487830956
 31
0.0
100
AcDbText
  0
TEXT
  5
822
330
3E1
100
AcDbEntity
  8
0
  6
Continuous
 62
     5
100
AcDbText
 10
406.4376244781338
 20
-64.01063487830956
 30
0.0
 40
2.399999999999999
  1
new
 41
0.8
 72
     1
 11
408.9976244781338
 21
-64.01063487830956
 31
0.0
100
AcDbText
  0
TEXT
  5
823
330
3E1
100
AcDbEntity
  8
0
  6
Continuous
 62
     5
100
AcDbText
 10
401.3176244781338
 20
-69.41063487830956
 30
0.0
 40
2.399999999999999
  1
Sheet No.
 41
0.8
 72
     1
 11
408.9976244781338
 21
-69.41063487830956
 31
0.0
100
AcDbText
  0
MTEXT
  5
824
330
3E1
100
AcDbEntity
  8
0
  6
Continuous
 62
     5
100
AcDbMText
 10
408.9976244781338
 20
-72.41063487830956
 30
0.0
 40
2.399999999999999
 41
11.52
 46
0.0
 71
     2
 72
     1
  1
1 of 1
 73
     1
 44
1.0
  0
MTEXT
  5
825
330
3E1
100
AcDbEntity
  8
0
  6
Continuous
 62
     5
100
AcDbMText
 10
392.1433901815968
 20
-82.70405114986829
 30
0.0
 40
2.399999999999999
 41
34.56
 46
0.0
 71
     1
 72
     1
  1
DRG No. 
 73
     1
 44
1.0
  0
LINE
  5
826
330
3E1
100
AcDbEntity
  8
0
  6
Continuous
 62
     5
100
AcDbLine
 10
383.7892301076938
 20
-43.92886560218957
 30
0.0
 11
434.1892301076938
 21
-43.92886560218957
 31
0.0
  0
LINE
  5
827
330
3E1
100
AcDbEntity
  8
0
  6
Continuous
 62
     5
100
AcDbLine
 10
383.7892301076938
 20
-43.92886560218957
 30
0.0
 11
383.7892301076938
 21
-54.72886560218956
 31
0.0
  0
LINE
  5
828
330
3E1
100
AcDbEntity
  8
0
  6
Continuous
 62
     5
100
AcDbLine
 10
383.7892301076938
 20
-49.32886560218956
 30
0.0
 11
434.1892301076938
 21
-49.32886560218956
 31
0.0
  0
LINE
  5
829
330
3E1
100
AcDbEntity
  8
0
  6
Continuous
 62
     5
100
AcDbLine
 10
383.7892301076938
 20
-54.72886560218956
 30
0.0
 11
434.1892301076938
 21
-54.72886560218956
 31
0.0
  0
LINE
  5
82A
330
3E1
100
AcDbEntity
  8
0
  6
Continuous
 62
     5
100
AcDbLine
 10
434.1892301076938
 20
-43.92886560218957
 30
0.0
 11
434.1892301076938
 21
-54.72886560218956
 31
0.0
  0
TEXT
  5
82B
330
3E1
100
AcDbEntity
  8
0
  6
Continuous
 62
     5
100
AcDbText
 10
402.7492301076938
 20
-47.82886560218956
 30
0.0
 40
2.399999999999999
  1
Material
 41
0.8
 72
     1
 11
408.9892301076938
 21
-47.82886560218956
 31
0.0
100
AcDbText
  0
TEXT
  5
82C
330
3E1
100
AcDbEntity
  8
0
  6
Continuous
 62
     5
100
AcDbText
 10
403.2292301076938
 20
-53.22886560218956
 30
0.0
 40
2.399999999999999
  1
various
 41
0.8
 72
     1
 11
408.9892301076938
 21
-53.22886560218956
 31
0.0
100
AcDbText
  0
LINE
  5
82D
330
3E1
100
AcDbEntity
  8
0
  6
Continuous
 62
     5
100
AcDbLine
 10
-52.36667616518613
 20
-99.45065541554956
 30
0.0
 11
-52.36667616518613
 21
256.9493445844504
 31
0.0
  0
LINE
  5
82E
330
3E1
100
AcDbEntity
  8
0
  6
Continuous
 62
     5
100
AcDbLine
 10
-39.07402949318614
 20
-86.50601304134957
 30
0.0
 11
-39.07402949318614
 21
247.8187881105304
 31
0.0
  0
LINE
  5
82F
330
3E1
100
AcDbEntity
  8
0
  6
Continuous
 62
     5
100
AcDbLine
 10
-52.36667616518613
 20
-99.45065541554956
 30
0.0
 11
451.6333238348138
 21
-99.45065541554956
 31
0.0
  0
LINE
  5
830
330
3E1
100
AcDbEntity
  8
0
  6
Continuous
 62
     5
100
AcDbLine
 10
434.2030231740937
 20
-86.50601304134957
 30
0.0
 11
-39.07402949318614
 21
-86.50601304134957
 31
0.0
  0
LINE
  5
831
330
3E1
100
AcDbEntity
  8
0
  6
Continuous
 62
     5
100
AcDbLine
 10
434.2030231740937
 20
-54.72658852322956
 30
0.0
 11
98.64587014269387
 21
-54.72658852322956
 31
0.0
  0
LINE
  5
832
330
3E1
100
AcDbEntity
  8
0
  6
Continuous
 62
     5
100
AcDbLine
 10
98.64587014269387
 20
-54.72658852322956
 30
0.0
 11
98.64587014269387
 21
-86.53838494178955
 31
0.0
  0
LINE
  5
833
330
3E1
100
AcDbEntity
  8
0
  6
Continuous
 62
     5
100
AcDbLine
 10
184.5932212744538
 20
-54.81088071242956
 30
0.0
 11
184.5932212744538
 21
-86.45150571242956
 31
0.0
  0
LINE
  5
834
330
3E1
100
AcDbEntity
  8
0
  6
Continuous
 62
     5
100
AcDbLine
 10
-39.07402949318614
 20
247.8187881105304
 30
0.0
 11
434.2030231740937
 21
247.8187881105304
 31
0.0
  0
LINE
  5
835
330
3E1
100
AcDbEntity
  8
0
  6
Continuous
 62
     5
100
AcDbLine
 10
-52.36667616518613
 20
256.9493445844504
 30
0.0
 11
451.6333238348138
 21
256.9493445844504
 31
0.0
  0
LINE
  5
836
330
3E1
100
AcDbEntity
  8
0
  6
Continuous
 62
     5
100
AcDbLine
 10
434.2030231740937
 20
247.8187881105304
 30
0.0
 11
434.2030231740937
 21
-86.50601304134957
 31
0.0
  0
LINE
  5
837
330
3E1
100
AcDbEntity
  8
0
  6
Continuous
 62
     5
100
AcDbLine
 10
451.6333238348138
 20
-99.45065541554956
 30
0.0
 11
451.6333238348138
 21
256.9493445844504
 31
0.0
  0
TEXT
  5
838
330
3E1
100
AcDbEntity
  8
0
  6
Continuous
 62
     5
100
AcDbText
 10
323.1702505361
 20
29.5333504477
 30
0.0
 40
2.0
  1
 
 41
0.8
 72
     1
 11
323.9702505361
 21
29.5333504477
 31
0.0
100
AcDbText
  0
TEXT
  5
839
330
3E1
100
AcDbEntity
  8
0
  6
Continuous
 62
     5
100
AcDbText
 10
323.1702505361
 20
25.0333504477
 30
0.0
 40
2.0
  1
 
 41
0.8
 72
     1
 11
323.9702505361
 21
25.0333504477
 31
0.0
100
AcDbText
  0
TEXT
  5
83A
330
3E1
100
AcDbEntity
  8
0
  6
Continuous
 62
     5
100
AcDbText
 10
345.1702505361
 20
20.5333504477
 30
0.0
 40
2.0
  1
 
 41
0.8
 72
     1
 11
345.9702505361
 21
20.5333504477
 31
0.0
100
AcDbText
  0
ENDBLK
  5
3E3
330
3E1
100
AcDbEntity
  8
0
100
AcDbBlockEnd
  0
BLOCK
  5
58F
330
587
100
AcDbEntity
  8
0
100
AcDbBlockBegin
  2
A$C116F70D8
 70
     0
 10
0.0
 20
0.0
 30
0.0
  3
A$C116F70D8
  1

  0
LINE
  5
588
330
587
100
AcDbEntity
  8
0
100
AcDbLine
 10
0.0
 20
55.0
 30
0.0
 11
0.0
 21
115.0
 31
0.0
  0
LINE
  5
589
330
587
100
AcDbEntity
  8
0
100
AcDbLine
 10
0.0
 20
115.0
 30
0.0
 11
5.0
 21
115.0
 31
0.0
  0
LINE
  5
58A
330
587
100
AcDbEntity
  8
0
100
AcDbLine
 10
5.0
 20
115.0
 30
0.0
 11
5.0
 21
0.0
 31
0.0
  0
LINE
  5
58B
330
587
100
AcDbEntity
  8
0
100
AcDbLine
 10
5.0
 20
0.0
 30
0.0
 11
0.0
 21
0.0
 31
0.0
  0
LINE
  5
58C
330
587
100
AcDbEntity
  8
0
100
AcDbLine
 10
0.0
 20
0.0
 30
0.0
 11
0.0
 21
55.0
 31
0.0
  0
ENDBLK
  5
590
330
587
100
AcDbEntity
  8
0
100
AcDbBlockEnd
  0
BLOCK
  5
849
330
845
100
AcDbEntity
  8
0
100
AcDbBlockBegin
  2
A$C6AAE2749
 70
     0
 10
0.0
 20
0.0
 30
0.0
  3
A$C6AAE2749
  1

  0
HATCH
  5
846
330
845
100
AcDbEntity
  8
text
 62
   166
100
AcDbHatch
 10
0.0
 20
0.0
 30
0.0
210
0.0
220
0.0
230
1.0
  2
SOLID
 70
     1
 71
     0
 91
       11
 92
        5
 93
       10
 72
     3
 10
21.34581871555531
 20
7.800462658748756
 11
-3.449178186707262
 21
0.0
 40
0.9056602478945368
 50
-314.3483745186415
 51
11.91501242794504
 73
     0
 72
     1
 10
17.98660931148242
 20
8.509278415927269
 11
13.54169631055128
 21
11.83723164365779
 72
     3
 10
21.44343684651233
 20
7.800462658748756
 11
-9.273734274348962
 21
0.0
 40
0.8315788888444256
 50
332.9388351985431
 51
396.657808139752
 73
     1
 72
     2
 10
16.56718027674856
 20
27.08898785926442
 40
24.51599638188456
 50
94.75940817866748
 51
132.5139917398187
 73
     0
 72
     2
 10
18.26972035759865
 20
22.99910324287589
 40
23.00555348586424
 50
217.4255277535208
 51
275.9599758359104
 73
     1
 72
     3
 10
21.44343684651233
 20
7.800462658748756
 11
-9.273734274348962
 21
0.0
 40
0.8315788888444256
 50
443.9964417882849
 51
216.2757696112881
 73
     1
 72
     2
 10
26.25993552979423
 20
-11.37498928641827
 40
24.3722919411835
 50
275.0292219995836
 51
312.5701309054574
 73
     0
 72
     2
 10
24.49395222882811
 20
-7.386619102153986
 40
22.98029605244739
 50
37.40917747848396
 51
95.61506585783824
 73
     1
 72
     3
 10
21.44343684651233
 20
7.800462658748756
 11
-9.273734274348962
 21
0.0
 40
0.8315788888444256
 50
264.0405170378193
 51
300.4280105459959
 73
     1
 72
     1
 10
17.37339810735307
 20
14.72991189354582
 11
19.05950486027063
 21
10.13938160163923
 97
        0
 92
       21
 93
        4
 72
     3
 10
21.34581871555531
 20
7.800462658748756
 11
-3.449178186707262
 21
0.0
 40
0.9056602478945368
 50
21.49574010595941
 51
30.47977737537621
 73
     0
 72
     1
 10
18.45371756858878
 20
9.502665759932028
 11
14.69372943600581
 21
13.08891194416424
 72
     3
 10
21.44343684651233
 20
7.800462658748756
 11
-9.273734274348962
 21
0.0
 40
0.8315788888444256
 50
321.9210190864662
 51
325.6374713059969
 73
     1
 72
     1
 10
14.28248644490429
 20
12.70056219729582
 11
18.18275637605859
 21
9.046154395744395
 97
        0
 92
       23
 72
     0
 73
     1
 93
       12
 10
33.86980542251479
 20
3.730821380452539
 10
33.86980542251479
 20
5.383326627923679
 10
32.20460362938468
 20
5.383326627923679
 10
32.20460362938468
 20
1.11969391972417
 10
33.86364274496589
 20
1.11969391972417
 10
33.86364274496589
 20
2.768330078620522
 10
35.54335485019067
 20
2.768330078620522
 10
35.54335485019067
 20
1.1195541654115
 10
37.20838505869017
 20
1.1195541654115
 10
37.20838505869017
 20
5.377667535480725
 10
35.54631743211496
 20
5.377667535480725
 10
35.54631743211496
 20
3.730821380452539
 97
        0
 92
        7
 72
     0
 73
     1
 93
       10
 10
39.37661973863317
 20
2.774284952451296
 10
41.28408043493448
 20
2.774284952451296
 10
41.28408043493448
 20
1.113427470353656
 10
42.96109874598198
 20
1.113427470353656
 10
42.96109874598187
 20
5.375414236493725
 10
39.63014828653888
 20
5.375414236493725
 10
37.93582190414748
 20
3.72067339863014
 10
37.93582190414748
 20
1.114282747602999
 10
37.94677035597749
 20
1.114282747602999
 10
39.37661973863317
 20
1.114282747602999
 97
        0
 92
       22
 72
     0
 73
     1
 93
        4
 10
39.38023798540143
 20
3.730821380452368
 10
40.08502152900575
 20
4.419138651302262
 10
41.28408043493448
 20
4.419138651302262
 10
41.28408043493448
 20
3.730821380452539
 97
        0
 92
        7
 72
     0
 73
     1
 93
       14
 10
45.12000868875293
 20
5.38128535345902
 10
43.6826805828831
 20
5.380946497111892
 10
43.6826805828831
 20
1.119365114200832
 10
50.38382704850801
 20
1.119365114200945
 10
52.05913796569325
 20
2.776723473763638
 10
52.05913796569325
 20
5.380405667066042
 10
50.3814071135439
 20
5.380405667066042
 10
50.38140711354412
 20
2.539583378425334
 10
49.90500196378014
 20
2.066512158275429
 10
48.70950844834954
 20
2.066512158275429
 10
48.70950844834954
 20
5.379336450851837
 10
47.03306659404165
 20
5.379336450851724
 10
47.03306659404165
 20
2.065083505455561
 10
45.12000868875293
 20
2.065083505455561
 97
        0
 92
        7
 72
     0
 73
     1
 93
       15
 10
54.213160704845
 20
2.773116663830421
 10
55.65112950603543
 20
2.773116663830421
 10
56.12881689168466
 20
2.302475350001202
 10
56.12881689168466
 20
1.120266816684136
 10
57.80492064819782
 20
1.120266816684136
 10
57.80492064819782
 20
2.066701688096884
 10
56.01361802519659
 20
3.8390362633682
 10
57.56483994006771
 20
5.380416196500618
 10
56.14911881899889
 20
5.380416196500618
 10
54.4537265833103
 20
3.723006146986563
 10
54.21601002400803
 20
3.723006146986563
 10
54.21601002400803
 20
5.379470940447333
 10
52.77837171341184
 20
5.38098095707943
 10
52.77837171341184
 20
1.119352191713005
 10
54.213160704845
 20
1.119352191713005
 97
        0
 92
        7
 72
     0
 73
     1
 93
        4
 10
62.83167751312749
 20
1.118378219020087
 10
64.50735188544172
 20
1.118378219020087
 10
64.50735188544172
 20
5.379402020512259
 10
62.83169864423974
 20
5.379402020512259
 97
        0
 92
        7
 72
     0
 73
     1
 93
        4
 10
66.18377937059347
 20
1.118542861087064
 10
66.18377937059324
 20
2.067466986542058
 10
65.23418691682491
 20
2.067466986542058
 10
65.23418691682491
 20
1.118542861087064
 97
        0
 92
        7
 72
     0
 73
     1
 93
       14
 10
68.58342846694938
 20
2.778233011785118
 10
70.2579397828506
 20
1.112558313395368
 10
71.69323592097566
 20
1.112558313395368
 10
70.00794131302564
 20
2.775514503236706
 10
71.92770674145072
 20
2.775514503236706
 10
71.92770674145072
 20
3.724098336512611
 10
70.25222593012393
 20
5.380554993592056
 10
66.90075800602255
 20
5.380554993592056
 10
66.90075800602255
 20
4.43799208241819
 10
69.7730644380905
 20
4.43799208241819
 10
70.49187222820887
 20
3.72323731593525
 10
66.90027452617641
 20
3.72323731593525
 10
66.90027452617641
 20
1.1199069014678
 10
68.58342846694938
 20
1.1199069014678
 97
        0
 92
        7
 72
     0
 73
     1
 93
        4
 10
73.60036359094909
 20
1.123550085811189
 10
73.60036359094909
 20
2.061749024987818
 10
72.65464235692753
 20
2.061749024987932
 10
72.65464235692753
 20
1.123550085811189
 97
        0
 75
     0
 76
     1
 47
0.0329708751136207
 98
       11
 10
24.62325053408313
 20
11.87357166218856
 10
15.44631080061833
 20
11.87357166218856
 10
33.35470757768371
 20
3.50556342955241
 10
38.96778681382841
 20
3.238499560090701
 10
38.96778681382841
 20
3.238499560090701
 10
44.49176971631914
 20
3.149478081364691
 10
53.7578057834379
 20
3.149478081364691
 10
63.38022820676702
 20
2.704371254450848
 10
65.78583330180197
 20
1.369050773709432
 10
68.28053473049101
 20
2.437306818272816
 10
73.09174594215551
 20
1.547093164445357
450
        0
451
        0
460
0.0
461
0.0
452
        1
462
1.0
453
        2
463
0.0
 63
     5
421
      255
463
1.0
 63
     7
421
 16777215
470
LINEAR
  0
ENDBLK
  5
84A
330
845
100
AcDbEntity
  8
0
100
AcDbBlockEnd
  0
BLOCK
  5
85A
330
859
100
AcDbEntity
  8
0
100
AcDbBlockBegin
  2
NEWBORDER
 70
     0
 10
0.0
 20
0.0
 30
0.0
  3
NEWBORDER
  1

  0
INSERT
  5
85C
330
859
100
AcDbEntity
  8
0
100
AcDbBlockReference
  2
BORDER
 10
0.0
 20
0.0
 30
0.0
  0
INSERT
  5
85D
330
859
100
AcDbEntity
  8
0
100
AcDbBlockReference
  2
A$C6AAE2749
 10
-7.886879411342079
 20
-77.83659562650882
 30
0.0
  0
LINE
  5
85E
330
859
100
AcDbEntity
  8
0
 62
     5
100
AcDbLine
 10
98.64587014269387
 20
-54.72658852322956
 30
0.0
 11
-39.07402949318614
 21
-54.72658852322956
 31
0.0
  0
TEXT
  5
85F
330
859
100
AcDbEntity
  8
0
  6
Continuous
 62
     2
100
AcDbText
 10
109.0182230745493
 20
-60.56205891033843
 30
0.0
 40
2.0
  1
GLOBAL TOLERANCES
 41
0.8
100
AcDbText
  0
TEXT
  5
860
330
859
100
AcDbEntity
  8
0
  6
Continuous
 62
     2
100
AcDbText
 10
96.06805572839386
 20
-57.93414024692955
 30
0.0
 40
2.0
  1
 
 41
0.8
100
AcDbText
  0
TEXT
  5
861
330
859
100
AcDbEntity
  8
0
  6
Continuous
 62
     2
100
AcDbText
 10
109.0182230745493
 20
-66.56205891033843
 30
0.0
 40
2.0
  1
0.000    0.10
 41
0.8
100
AcDbText
  0
TEXT
  5
862
330
859
100
AcDbEntity
  8
0
  6
Continuous
 62
     2
100
AcDbText
 10
109.0182230745493
 20
-69.56205891033843
 30
0.0
 40
2.0
  1
0.00     0.15
 41
0.8
100
AcDbText
  0
TEXT
  5
863
330
859
100
AcDbEntity
  8
0
  6
Continuous
 62
     2
100
AcDbText
 10
109.0182230745493
 20
-72.56205891033843
 30
0.0
 40
2.0
  1
0.0  +/- 0.25
 41
0.8
100
AcDbText
  0
TEXT
  5
864
330
859
100
AcDbEntity
  8
0
  6
Continuous
 62
     2
100
AcDbText
 10
109.0182230745493
 20
-75.56205891033844
 30
0.0
 40
2.0
  1
0        0.50
 41
0.8
100
AcDbText
  0
TEXT
  5
865
330
859
100
AcDbEntity
  8
0
  6
Continuous
 62
     2
100
AcDbText
 10
96.06805572839386
 20
-72.93414024692956
 30
0.0
 40
2.0
  1
 
 41
0.8
100
AcDbText
  0
TEXT
  5
866
330
859
100
AcDbEntity
  8
0
  6
Continuous
 62
     2
100
AcDbText
 10
109.0182230745493
 20
-81.56205891033843
 30
0.0
 40
2.0
  1
0.00
 41
0.8
100
AcDbText
  0
TEXT
  5
867
330
859
100
AcDbEntity
  8
0
  6
Continuous
 62
     2
100
AcDbText
 10
115.4182230745493
 20
-81.56205891033843
 30
0.0
 40
2.0
  1
%%d  +/- 0.50
 41
0.7878787879000001
100
AcDbText
  0
TEXT
  5
868
330
859
100
AcDbEntity
  8
0
  6
Continuous
 62
     2
100
AcDbText
 10
132.7515564078493
 20
-81.56205891033843
 30
0.0
 40
2.0
  1
%%d
 41
0.6666666667
100
AcDbText
  0
ENDBLK
  5
85B
330
859
100
AcDbEntity
  8
0
100
AcDbBlockEnd
  0
BLOCK
  5
EB0
330
EAF
100
AcDbEntity
  8
0
100
AcDbBlockBegin
  2
Cborder
 70
     0
 10
0.0
 20
0.0
 30
0.0
  3
Cborder
  1

  0
TEXT
  5
EB2
330
EAF
100
AcDbEntity
  8
text
100
AcDbText
 10
194.0514300694374
 20
-92.51083902989071
 30
0.0
 40
3.1640625
  1
CorDex Instruments Ltd.
100
AcDbText
  0
TEXT
  5
EB3
330
EAF
100
AcDbEntity
  8
text
100
AcDbText
 10
194.0514300694374
 20
-97.57333902989072
 30
0.0
 40
3.1640625
  1
Unit 6, Farfield Business Park
100
AcDbText
  0
TEXT
  5
EB4
330
EAF
100
AcDbEntity
  8
text
100
AcDbText
 10
194.0514300694374
 20
-102.6358390298907
 30
0.0
 40
3.1640625
  1
Wykeham
100
AcDbText
  0
TEXT
  5
EB5
330
EAF
100
AcDbEntity
  8
text
100
AcDbText
 10
194.25680843608
 20
-112.4160998435161
 30
0.0
 40
3.1640625
  1
YO13 9QB
100
AcDbText
  0
TEXT
  5
EB6
330
EAF
100
AcDbEntity
  8
text
100
AcDbText
 10
194.25680843608
 20
-117.4785998435161
 30
0.0
 40
3.1640625
  1
Tel :- 0044 (0) 1904 749020
100
AcDbText
  0
TEXT
  5
EB7
330
EAF
100
AcDbEntity
  8
text
100
AcDbText
 10
194.25680843608
 20
-122.5410998435161
 30
0.0
 40
3.1640625
  1
Fax :- 0044 (0) 1904 352415
100
AcDbText
  0
LINE
  5
EB8
330
EAF
100
AcDbEntity
  8
text
100
AcDbLine
 10
309.5019737765574
 20
-86.34041454427475
 30
0.0
 11
490.9419737765574
 21
-86.34041454427475
 31
0.0
  0
LINE
  5
EB9
330
EAF
100
AcDbEntity
  8
text
100
AcDbLine
 10
309.5019737765574
 20
-86.34041454427475
 30
0.0
 11
309.5019737765574
 21
-124.5004145442747
 31
0.0
  0
LINE
  5
EBA
330
EAF
100
AcDbEntity
  8
text
100
AcDbLine
 10
309.5019737765574
 20
-92.82041454427471
 30
0.0
 11
490.9419737765574
 21
-92.82041454427471
 31
0.0
  0
LINE
  5
EBB
330
EAF
100
AcDbEntity
  8
text
100
AcDbLine
 10
309.5019737765574
 20
-99.30041454427474
 30
0.0
 11
490.9419737765574
 21
-99.30041454427474
 31
0.0
  0
LINE
  5
EBC
330
EAF
100
AcDbEntity
  8
text
100
AcDbLine
 10
309.5019737765574
 20
-105.7804145442747
 30
0.0
 11
490.9419737765574
 21
-105.7804145442747
 31
0.0
  0
LINE
  5
EBD
330
EAF
100
AcDbEntity
  8
text
100
AcDbLine
 10
309.5019737765574
 20
-112.2604145442747
 30
0.0
 11
490.9419737765574
 21
-112.2604145442747
 31
0.0
  0
LINE
  5
EBE
330
EAF
100
AcDbEntity
  8
text
100
AcDbLine
 10
309.5019737765574
 20
-118.7404145442747
 30
0.0
 11
490.9419737765574
 21
-118.7404145442747
 31
0.0
  0
LINE
  5
EBF
330
EAF
100
AcDbEntity
  8
text
100
AcDbLine
 10
309.5019737765574
 20
-124.5004145442747
 30
0.0
 11
490.9419737765574
 21
-124.5004145442747
 31
0.0
  0
LINE
  5
EC0
330
EAF
100
AcDbEntity
  8
text
100
AcDbLine
 10
328.2219737765574
 20
-86.34041454427475
 30
0.0
 11
328.2219737765574
 21
-124.5004145442747
 31
0.0
  0
LINE
  5
EC1
330
EAF
100
AcDbEntity
  8
text
100
AcDbLine
 10
341.1819737765575
 20
-86.34041454427475
 30
0.0
 11
341.1819737765575
 21
-124.5004145442747
 31
0.0
  0
LINE
  5
EC2
330
EAF
100
AcDbEntity
  8
text
100
AcDbLine
 10
354.1419737765575
 20
-86.34041454427475
 30
0.0
 11
354.1419737765575
 21
-124.5004145442747
 31
0.0
  0
LINE
  5
EC3
330
EAF
100
AcDbEntity
  8
text
100
AcDbLine
 10
367.1019737765573
 20
-86.34041454427475
 30
0.0
 11
367.1019737765573
 21
-124.5004145442747
 31
0.0
  0
LINE
  5
EC4
330
EAF
100
AcDbEntity
  8
text
100
AcDbLine
 10
380.0619737765574
 20
-86.34041454427475
 30
0.0
 11
380.0619737765574
 21
-124.5004145442747
 31
0.0
  0
LINE
  5
EC5
330
EAF
100
AcDbEntity
  8
text
100
AcDbLine
 10
430.4619737765574
 20
-86.34041454427475
 30
0.0
 11
430.4619737765574
 21
-124.5004145442747
 31
0.0
  0
LINE
  5
EC6
330
EAF
100
AcDbEntity
  8
text
100
AcDbLine
 10
490.9419737765574
 20
-86.34041454427475
 30
0.0
 11
490.9419737765574
 21
-124.5004145442747
 31
0.0
  0
TEXT
  5
EC7
330
EAF
100
AcDbEntity
  8
text
100
AcDbText
 10
314.6379737765575
 20
-91.02041454427471
 30
0.0
 40
2.879999999999999
  1
Date
 41
0.8
 72
     1
 11
318.8619737765575
 21
-91.02041454427471
 31
0.0
100
AcDbText
  0
TEXT
  5
EC8
330
EAF
100
AcDbEntity
  8
text
100
AcDbText
 10
331.6299737765574
 20
-91.02041454427471
 30
0.0
 40
2.879999999999999
  1
Rev
 41
0.8
 72
     1
 11
334.7019737765574
 21
-91.02041454427471
 31
0.0
100
AcDbText
  0
TEXT
  5
EC9
330
EAF
100
AcDbEntity
  8
text
100
AcDbText
 10
344.5899737765575
 20
-91.02041454427471
 30
0.0
 40
2.879999999999999
  1
Drn
 41
0.8
 72
     1
 11
347.6619737765575
 21
-91.02041454427471
 31
0.0
100
AcDbText
  0
TEXT
  5
ECA
330
EAF
100
AcDbEntity
  8
text
100
AcDbText
 10
357.5499737765574
 20
-91.02041454427471
 30
0.0
 40
2.879999999999999
  1
Chk
 41
0.8
 72
     1
 11
360.6219737765574
 21
-91.02041454427471
 31
0.0
100
AcDbText
  0
TEXT
  5
ECB
330
EAF
100
AcDbEntity
  8
text
100
AcDbText
 10
370.5099737765575
 20
-91.02041454427471
 30
0.0
 40
2.879999999999999
  1
App
 41
0.8
 72
     1
 11
373.5819737765575
 21
-91.02041454427471
 31
0.0
100
AcDbText
  0
TEXT
  5
ECC
330
EAF
100
AcDbEntity
  8
text
100
AcDbText
 10
394.5099737765575
 20
-91.02041454427471
 30
0.0
 40
2.879999999999999
  1
Description
 41
0.8
 72
     1
 11
405.2619737765574
 21
-91.02041454427471
 31
0.0
100
AcDbText
  0
TEXT
  5
ECD
330
EAF
100
AcDbEntity
  8
text
100
AcDbText
 10
456.6699737765574
 20
-91.02041454427471
 30
0.0
 40
2.879999999999999
  1
Title
 41
0.8
 72
     1
 11
460.7019737765575
 21
-91.02041454427471
 31
0.0
100
AcDbText
  0
TEXT
  5
ECE
330
EAF
100
AcDbEntity
  8
text
100
AcDbText
 10
312.1419737765574
 20
-97.32041454427472
 30
0.0
 40
2.52
  1
00/00/00
 41
0.8
 72
     1
 11
318.8619737765575
 21
-97.32041454427472
 31
0.0
100
AcDbText
  0
TEXT
  5
ECF
330
EAF
100
AcDbEntity
  8
text
100
AcDbText
 10
333.9339737765574
 20
-97.50041454427472
 30
0.0
 40
2.879999999999999
  1
A
 41
0.8
 72
     1
 11
334.7019737765574
 21
-97.50041454427472
 31
0.0
100
AcDbText
  0
TEXT
  5
ED0
330
EAF
100
AcDbEntity
  8
text
100
AcDbText
 10
345.7419737765575
 20
-97.50041454427472
 30
0.0
 40
2.879999999999999
  1
RK
 41
0.8
 72
     1
 11
347.6619737765575
 21
-97.50041454427472
 31
0.0
100
AcDbText
  0
TEXT
  5
ED1
330
EAF
100
AcDbEntity
  8
text
100
AcDbText
 10
357.5499737765574
 20
-97.50041454427472
 30
0.0
 40
2.879999999999999
  1
GRH
 41
0.8
 72
     1
 11
360.6219737765574
 21
-97.50041454427472
 31
0.0
100
AcDbText
  0
TEXT
  5
ED2
330
EAF
100
AcDbEntity
  8
text
100
AcDbText
 10
392.0139737765575
 20
-97.50041454427472
 30
0.0
 40
2.879999999999999
  1
Original Issue
 41
0.8
 72
     1
 11
405.2619737765574
 21
-97.50041454427472
 31
0.0
100
AcDbText
  0
TEXT
  5
ED3
330
EAF
100
AcDbEntity
  8
text
100
AcDbText
 10
457.6299737765574
 20
-97.50041454427472
 30
0.0
 40
2.879999999999999
  1
new
 41
0.8
 72
     1
 11
460.7019737765575
 21
-97.50041454427472
 31
0.0
100
AcDbText
  0
TEXT
  5
ED4
330
EAF
100
AcDbEntity
  8
text
100
AcDbText
 10
451.4859737765574
 20
-103.9804145442747
 30
0.0
 40
2.879999999999999
  1
Sheet No.
 41
0.8
 72
     1
 11
460.7019737765575
 21
-103.9804145442747
 31
0.0
100
AcDbText
  0
MTEXT
  5
ED5
330
EAF
100
AcDbEntity
  8
text
100
AcDbMText
 10
460.7019737765575
 20
-107.5804145442747
 30
0.0
 40
2.879999999999999
 41
13.82399999999999
 46
0.0
 71
     2
 72
     1
  1
1 of 1
 73
     1
 44
1.0
  0
MTEXT
  5
ED6
330
EAF
100
AcDbEntity
  8
text
100
AcDbMText
 10
440.476892620713
 20
-119.9325140701452
 30
0.0
 40
2.879999999999999
 41
41.472
 46
0.0
 71
     1
 72
     1
  1
DRG No. 
 73
     1
 44
1.0
  0
LINE
  5
ED7
330
EAF
100
AcDbEntity
  8
text
100
AcDbLine
 10
430.4519005320294
 20
-73.40229141293074
 30
0.0
 11
490.9319005320291
 21
-73.40229141293074
 31
0.0
  0
LINE
  5
ED8
330
EAF
100
AcDbEntity
  8
text
100
AcDbLine
 10
430.4519005320294
 20
-73.40229141293074
 30
0.0
 11
430.4519005320294
 21
-86.36229141293071
 31
0.0
  0
LINE
  5
ED9
330
EAF
100
AcDbEntity
  8
text
100
AcDbLine
 10
430.4519005320294
 20
-79.88229141293071
 30
0.0
 11
490.9319005320291
 21
-79.88229141293071
 31
0.0
  0
LINE
  5
EDA
330
EAF
100
AcDbEntity
  8
text
100
AcDbLine
 10
430.4519005320294
 20
-86.36229141293071
 30
0.0
 11
490.9319005320291
 21
-86.36229141293071
 31
0.0
  0
LINE
  5
EDB
330
EAF
100
AcDbEntity
  8
text
100
AcDbLine
 10
490.9319005320291
 20
-73.40229141293074
 30
0.0
 11
490.9319005320291
 21
-86.36229141293071
 31
0.0
  0
TEXT
  5
EDC
330
EAF
100
AcDbEntity
  8
text
100
AcDbText
 10
453.2039005320294
 20
-78.08229141293074
 30
0.0
 40
2.879999999999999
  1
Material
 41
0.8
 72
     1
 11
460.6919005320293
 21
-78.08229141293074
 31
0.0
100
AcDbText
  0
TEXT
  5
EDD
330
EAF
100
AcDbEntity
  8
text
100
AcDbText
 10
453.7799005320294
 20
-84.56229141293071
 30
0.0
 40
2.879999999999999
  1
various
 41
0.8
 72
     1
 11
460.6919005320293
 21
-84.56229141293071
 31
0.0
100
AcDbText
  0
LINE
  5
EDE
330
EAF
100
AcDbEntity
  8
text
100
AcDbLine
 10
-76.98401098902664
 20
-124.4948683399227
 30
0.0
 11
-76.98401098902664
 21
276.6948930423333
 31
0.0
  0
LINE
  5
EDF
330
EAF
100
AcDbEntity
  8
text
100
AcDbLine
 10
-91.98401098902664
 20
-139.4948683399227
 30
0.0
 11
-91.98401098902664
 21
291.6948930423333
 31
0.0
  0
LINE
  5
EE0
330
EAF
100
AcDbEntity
  8
text
100
AcDbLine
 10
490.9484522117093
 20
-124.4948683399227
 30
0.0
 11
-76.98401098902664
 21
-124.4948683399227
 31
0.0
  0
LINE
  5
EE1
330
EAF
100
AcDbEntity
  8
text
100
AcDbLine
 10
505.9484522117094
 20
-139.4948683399227
 30
0.0
 11
-91.98401098902664
 21
-139.4948683399227
 31
0.0
  0
LINE
  5
EE2
330
EAF
100
AcDbEntity
  8
text
100
AcDbLine
 10
490.9484522117093
 20
-86.35955891817872
 30
0.0
 11
88.27986857402937
 21
-86.35955891817872
 31
0.0
  0
LINE
  5
EE3
330
EAF
100
AcDbEntity
  8
text
100
AcDbLine
 10
88.27986857402937
 20
-86.35955891817872
 30
0.0
 11
88.27986857402937
 21
-124.5337146204507
 31
0.0
  0
LINE
  5
EE4
330
EAF
100
AcDbEntity
  8
text
100
AcDbLine
 10
191.4166899321413
 20
-86.46070954521873
 30
0.0
 11
191.4166899321413
 21
-124.4294595452187
 31
0.0
  0
LINE
  5
EE5
330
EAF
100
AcDbEntity
  8
text
100
AcDbLine
 10
-76.98401098902664
 20
276.6948930423333
 30
0.0
 11
490.9484522117093
 21
276.6948930423333
 31
0.0
  0
LINE
  5
EE6
330
EAF
100
AcDbEntity
  8
text
100
AcDbLine
 10
-91.98401098902664
 20
291.6948930423333
 30
0.0
 11
505.9484522117092
 21
291.6948930423333
 31
0.0
  0
LINE
  5
EE7
330
EAF
100
AcDbEntity
  8
text
100
AcDbLine
 10
490.9484522117093
 20
276.6948930423333
 30
0.0
 11
490.9484522117093
 21
-124.4948683399227
 31
0.0
  0
LINE
  5
EE8
330
EAF
100
AcDbEntity
  8
text
100
AcDbLine
 10
505.9484522117092
 20
291.6948930423333
 30
0.0
 11
505.9484522117094
 21
-139.4948683399227
 31
0.0
  0
LINE
  5
EE9
330
EAF
100
AcDbEntity
  8
text
100
AcDbLine
 10
88.27986857402937
 20
-86.35955891817872
 30
0.0
 11
-76.98401098902664
 21
-86.35955891817872
 31
0.0
  0
TEXT
  5
EEA
330
EAF
100
AcDbEntity
  8
text
100
AcDbText
 10
194.0514300694374
 20
-107.3536010882288
 30
0.0
 40
3.1640625
  1
Scarborough
100
AcDbText
  0
LINE
  5
EEB
330
EAF
100
AcDbEntity
  8
text
100
AcDbLine
 10
-91.98401098902664
 20
76.10001235120531
 30
0.0
 11
-76.98401098902664
 21
76.10001235120531
 31
0.0
  0
LINE
  5
EEC
330
EAF
100
AcDbEntity
  8
text
100
AcDbLine
 10
490.9484522117094
 20
76.10001235120515
 30
0.0
 11
505.9484522117094
 21
76.10001235120513
 31
0.0
  0
LINE
  5
EED
330
EAF
100
AcDbEntity
  8
text
100
AcDbLine
 10
-91.98401098902664
 20
183.8974526967693
 30
0.0
 11
-76.98401098902664
 21
183.8974526967693
 31
0.0
  0
LINE
  5
EEE
330
EAF
100
AcDbEntity
  8
text
100
AcDbLine
 10
490.9484522117093
 20
183.8974526967693
 30
0.0
 11
505.9484522117092
 21
183.8974526967693
 31
0.0
  0
LINE
  5
EEF
330
EAF
100
AcDbEntity
  8
text
100
AcDbLine
 10
-91.98401098902664
 20
-31.69742799435869
 30
0.0
 11
-76.98401098902664
 21
-31.69742799435869
 31
0.0
  0
LINE
  5
EF0
330
EAF
100
AcDbEntity
  8
text
100
AcDbLine
 10
490.9484522117094
 20
-31.69742799435869
 30
0.0
 11
505.9484522117094
 21
-31.69742799435869
 31
0.0
  0
LINE
  5
EF1
330
EAF
100
AcDbEntity
  8
text
100
AcDbLine
 10
-17.24245308893464
 20
-139.4948683399227
 30
0.0
 11
-17.24245308893464
 21
-124.4948683399227
 31
0.0
  0
LINE
  5
EF2
330
EAF
100
AcDbEntity
  8
text
100
AcDbLine
 10
-17.24245308893464
 20
276.6948930423333
 30
0.0
 11
-17.24245308893464
 21
291.6948930423333
 31
0.0
  0
LINE
  5
EF3
330
EAF
100
AcDbEntity
  8
text
100
AcDbLine
 10
57.49910481115737
 20
-139.4948683399227
 30
0.0
 11
57.49910481115737
 21
-124.4948683399227
 31
0.0
  0
LINE
  5
EF4
330
EAF
100
AcDbEntity
  8
text
100
AcDbLine
 10
57.49910481115737
 20
276.6948930423333
 30
0.0
 11
57.49910481115737
 21
291.6948930423333
 31
0.0
  0
LINE
  5
EF5
330
EAF
100
AcDbEntity
  8
text
100
AcDbLine
 10
132.2406627112493
 20
-139.4948683399227
 30
0.0
 11
132.2406627112493
 21
-124.4948683399227
 31
0.0
  0
LINE
  5
EF6
330
EAF
100
AcDbEntity
  8
text
100
AcDbLine
 10
132.2406627112493
 20
276.6948930423333
 30
0.0
 11
132.2406627112493
 21
291.6948930423333
 31
0.0
  0
LINE
  5
EF7
330
EAF
100
AcDbEntity
  8
text
100
AcDbLine
 10
206.9822206113414
 20
-139.4948683399227
 30
0.0
 11
206.9822206113414
 21
-124.4948683399227
 31
0.0
  0
LINE
  5
EF8
330
EAF
100
AcDbEntity
  8
text
100
AcDbLine
 10
206.9822206113414
 20
276.6948930423333
 30
0.0
 11
206.9822206113414
 21
291.6948930423333
 31
0.0
  0
LINE
  5
EF9
330
EAF
100
AcDbEntity
  8
text
100
AcDbLine
 10
281.7237785114333
 20
-139.4948683399227
 30
0.0
 11
281.7237785114333
 21
-124.4948683399227
 31
0.0
  0
LINE
  5
EFA
330
EAF
100
AcDbEntity
  8
text
100
AcDbLine
 10
281.7237785114333
 20
276.6948930423333
 30
0.0
 11
281.7237785114333
 21
291.6948930423333
 31
0.0
  0
LINE
  5
EFB
330
EAF
100
AcDbEntity
  8
text
100
AcDbLine
 10
356.4653364115254
 20
-139.4948683399227
 30
0.0
 11
356.4653364115254
 21
-124.4948683399227
 31
0.0
  0
LINE
  5
EFC
330
EAF
100
AcDbEntity
  8
text
100
AcDbLine
 10
356.4653364115254
 20
276.6948930423333
 30
0.0
 11
356.4653364115254
 21
291.6948930423333
 31
0.0
  0
LINE
  5
EFD
330
EAF
100
AcDbEntity
  8
text
100
AcDbLine
 10
431.2068943116173
 20
-139.4948683399227
 30
0.0
 11
431.2068943116173
 21
-124.4948683399227
 31
0.0
  0
LINE
  5
EFE
330
EAF
100
AcDbEntity
  8
text
100
AcDbLine
 10
431.2068943116173
 20
276.6948930423333
 30
0.0
 11
431.2068943116173
 21
291.6948930423333
 31
0.0
  0
TEXT
  5
EFF
330
EAF
100
AcDbEntity
  8
text
100
AcDbText
 10
-54.18857381168004
 20
282.3735450138103
 30
0.0
 40
4.5
  1
1
 41
0.8
100
AcDbText
  0
TEXT
  5
F00
330
EAF
100
AcDbEntity
  8
text
100
AcDbText
 10
21.24329209544817
 20
282.3735450138103
 30
0.0
 40
4.5
  1
2
 41
0.8
100
AcDbText
  0
TEXT
  5
F01
330
EAF
100
AcDbEntity
  8
text
100
AcDbText
 10
96.23659871653423
 20
282.3735450138103
 30
0.0
 40
4.5
  1
3
 41
0.8
100
AcDbText
  0
TEXT
  5
F02
330
EAF
100
AcDbEntity
  8
text
100
AcDbText
 10
170.3527932614597
 20
282.3735450138103
 30
0.0
 40
4.5
  1
4
 41
0.8
100
AcDbText
  0
TEXT
  5
F03
330
EAF
100
AcDbEntity
  8
text
100
AcDbText
 10
244.0304285203431
 20
282.3735450138103
 30
0.0
 40
4.5
  1
5
 41
0.8
100
AcDbText
  0
TEXT
  5
F04
330
EAF
100
AcDbEntity
  8
text
100
AcDbText
 10
320.777965789674
 20
282.3735450138103
 30
0.0
 40
4.5
  1
6
 41
0.8
100
AcDbText
  0
TEXT
  5
F05
330
EAF
100
AcDbEntity
  8
text
100
AcDbText
 10
393.9545087545452
 20
282.3735450138103
 30
0.0
 40
4.5
  1
7
 41
0.8
100
AcDbText
  0
TEXT
  5
F06
330
EAF
100
AcDbEntity
  8
text
100
AcDbText
 10
466.6611853298674
 20
282.3735450138103
 30
0.0
 40
4.5
  1
8
 41
0.8
100
AcDbText
  0
TEXT
  5
F07
330
EAF
100
AcDbEntity
  8
text
100
AcDbText
 10
-54.18857381168004
 20
-133.8162163684456
 30
0.0
 40
4.5
  1
1
 41
0.8
100
AcDbText
  0
TEXT
  5
F08
330
EAF
100
AcDbEntity
  8
text
100
AcDbText
 10
21.24329209544817
 20
-133.8162163684456
 30
0.0
 40
4.5
  1
2
 41
0.8
100
AcDbText
  0
TEXT
  5
F09
330
EAF
100
AcDbEntity
  8
text
100
AcDbText
 10
96.23659871653423
 20
-133.8162163684456
 30
0.0
 40
4.5
  1
3
 41
0.8
100
AcDbText
  0
TEXT
  5
F0A
330
EAF
100
AcDbEntity
  8
text
100
AcDbText
 10
170.3527932614597
 20
-133.8162163684456
 30
0.0
 40
4.5
  1
4
 41
0.8
100
AcDbText
  0
TEXT
  5
F0B
330
EAF
100
AcDbEntity
  8
text
100
AcDbText
 10
244.0304285203431
 20
-133.8162163684456
 30
0.0
 40
4.5
  1
5
 41
0.8
100
AcDbText
  0
TEXT
  5
F0C
330
EAF
100
AcDbEntity
  8
text
100
AcDbText
 10
320.777965789674
 20
-133.8162163684456
 30
0.0
 40
4.5
  1
6
 41
0.8
100
AcDbText
  0
TEXT
  5
F0D
330
EAF
100
AcDbEntity
  8
text
100
AcDbText
 10
393.9545087545452
 20
-133.8162163684456
 30
0.0
 40
4.5
  1
7
 41
0.8
100
AcDbText
  0
TEXT
  5
F0E
330
EAF
100
AcDbEntity
  8
text
100
AcDbText
 10
466.6611853298674
 20
-133.8162163684456
 30
0.0
 40
4.5
  1
8
 41
0.8
100
AcDbText
  0
TEXT
  5
F0F
330
EAF
100
AcDbEntity
  8
text
100
AcDbText
 10
-85.17682166386453
 20
230.6701057714141
 30
0.0
 40
4.5
  1
A
 41
0.8
100
AcDbText
  0
TEXT
  5
F10
330
EAF
100
AcDbEntity
  8
text
100
AcDbText
 10
-84.50950193439302
 20
131.4815757890065
 30
0.0
 40
4.5
  1
B
 41
0.8
100
AcDbText
  0
TEXT
  5
F11
330
EAF
100
AcDbEntity
  8
text
100
AcDbText
 10
-84.6757586015085
 20
18.88444505444238
 30
0.0
 40
4.5
  1
C
 41
0.8
100
AcDbText
  0
TEXT
  5
F12
330
EAF
100
AcDbEntity
  8
text
100
AcDbText
 10
-85.01646979124826
 20
-82.33784204138236
 30
0.0
 40
4.5
  1
D
 41
0.8
100
AcDbText
  0
TEXT
  5
F13
330
EAF
100
AcDbEntity
  8
text
100
AcDbText
 10
497.7556415368714
 20
230.670105771414
 30
0.0
 40
4.5
  1
A
 41
0.8
100
AcDbText
  0
TEXT
  5
F14
330
EAF
100
AcDbEntity
  8
text
100
AcDbText
 10
498.4229612663429
 20
131.4815757890064
 30
0.0
 40
4.5
  1
B
 41
0.8
100
AcDbText
  0
TEXT
  5
F15
330
EAF
100
AcDbEntity
  8
text
100
AcDbText
 10
498.2567045992274
 20
18.88444505444223
 30
0.0
 40
4.5
  1
C
 41
0.8
100
AcDbText
  0
TEXT
  5
F16
330
EAF
100
AcDbEntity
  8
text
100
AcDbText
 10
497.9159934094877
 20
-82.33784204138251
 30
0.0
 40
4.5
  1
D
 41
0.8
100
AcDbText
  0
ENDBLK
  5
EB1
330
EAF
100
AcDbEntity
  8
0
100
AcDbBlockEnd
  0
BLOCK
  5
2295
330
2294
100
AcDbEntity
  8
0
100
AcDbBlockBegin
  2
*D7
 70
     1
 10
0.0
 20
0.0
 30
0.0
  3
*D7
  1

  0
LINE
  5
23D4
330
2294
100
AcDbEntity
  8
text
 62
     0
370
    -2
100
AcDbLine
 10
170.4331347445861
 20
-3.949100937671007
 30
0.0
 11
218.7940747345145
 21
-3.94910093767102
 31
0.0
  0
LINE
  5
23D5
330
2294
100
AcDbEntity
  8
text
 62
     0
370
    -2
100
AcDbLine
 10
170.4331347445861
 20
136.050899062329
 30
0.0
 11
218.7940747345145
 21
136.0508990623289
 31
0.0
  0
LINE
  5
23D6
330
2294
100
AcDbEntity
  8
text
 62
     0
370
    -2
100
AcDbLine
 10
211.2340747345145
 20
1.050899062328981
 30
0.0
 11
211.2340747345145
 21
60.55089906232897
 31
0.0
  0
LINE
  5
23D7
330
2294
100
AcDbEntity
  8
text
 62
     0
370
    -2
100
AcDbLine
 10
211.2340747345145
 20
131.0508990623289
 30
0.0
 11
211.2340747345145
 21
71.55089906232898
 31
0.0
  0
INSERT
  5
23D8
330
2294
100
AcDbEntity
  8
text
 62
     0
370
    -2
100
AcDbBlockReference
  2
_ARROW_FILLED
 10
211.2340747345145
 20
-3.949100937671018
 30
0.0
 41
5.0
 42
5.0
 43
5.0
 50
270.0
  0
INSERT
  5
23D9
330
2294
100
AcDbEntity
  8
text
 62
     0
370
    -2
100
AcDbBlockReference
  2
_ARROW_FILLED
 10
211.2340747345145
 20
136.0508990623289
 30
0.0
 41
5.0
 42
5.0
 43
5.0
 50
90.0
  0
MTEXT
  5
23DA
330
2294
100
AcDbEntity
  8
text
 62
     0
100
AcDbMText
 10
211.2340747345145
 20
66.05089906232901
 30
0.0
 40
5.0
 41
0.0
 46
0.0
 71
     5
 72
     1
  1
\A1;140.0±0.5
 73
     1
 44
1.0
  0
POINT
  5
23DB
330
2294
100
AcDbEntity
  8
Defpoints
 62
     0
100
AcDbPoint
 10
164.1831347445861
 20
-3.949100937671005
 30
0.0
  0
POINT
  5
23DC
330
2294
100
AcDbEntity
  8
Defpoints
 62
     0
100
AcDbPoint
 10
164.1831347445861
 20
136.050899062329
 30
0.0
  0
POINT
  5
23DD
330
2294
100
AcDbEntity
  8
Defpoints
 62
     0
100
AcDbPoint
 10
211.2340747345145
 20
136.0508990623289
 30
0.0
  0
ENDBLK
  5
2296
330
2294
100
AcDbEntity
  8
0
100
AcDbBlockEnd
  0
BLOCK
  5
22A3
330
22A2
100
AcDbEntity
  8
0
100
AcDbBlockBegin
  2
*D8
 70
     1
 10
0.0
 20
0.0
 30
0.0
  3
*D8
  1

  0
LINE
  5
23CA
330
22A2
100
AcDbEntity
  8
text
 62
     0
370
    -2
100
AcDbLine
 10
44.18313474458615
 20
-10.199100937671
 30
0.0
 11
44.18313474458615
 21
-32.98910180392005
 31
0.0
  0
LINE
  5
23CB
330
22A2
100
AcDbEntity
  8
text
 62
     0
370
    -2
100
AcDbLine
 10
164.1831347445861
 20
-10.199100937671
 30
0.0
 11
164.1831347445861
 21
-32.98910180392005
 31
0.0
  0
LINE
  5
23CC
330
22A2
100
AcDbEntity
  8
text
 62
     0
370
    -2
100
AcDbLine
 10
49.18313474458615
 20
-25.42910180392005
 30
0.0
 11
88.18313474458614
 21
-25.42910180392005
 31
0.0
  0
LINE
  5
23CD
330
22A2
100
AcDbEntity
  8
text
 62
     0
370
    -2
100
AcDbLine
 10
159.1831347445861
 20
-25.42910180392005
 30
0.0
 11
120.1831347445861
 21
-25.42910180392005
 31
0.0
  0
INSERT
  5
23CE
330
22A2
100
AcDbEntity
  8
text
 62
     0
370
    -2
100
AcDbBlockReference
  2
_ARROW_FILLED
 10
44.18313474458615
 20
-25.42910180392005
 30
0.0
 41
5.0
 42
5.0
 43
5.0
 50
180.0
  0
INSERT
  5
23CF
330
22A2
100
AcDbEntity
  8
text
 62
     0
370
    -2
100
AcDbBlockReference
  2
_ARROW_FILLED
 10
164.1831347445861
 20
-25.42910180392005
 30
0.0
 41
5.0
 42
5.0
 43
5.0
  0
MTEXT
  5
23D0
330
22A2
100
AcDbEntity
  8
text
 62
     0
100
AcDbMText
 10
104.1831347445861
 20
-25.42910180392005
 30
0.0
 40
5.0
 41
0.0
 46
0.0
 71
     5
 72
     1
  1
\A1;120.0±0.5
 73
     1
 44
1.0
  0
POINT
  5
23D1
330
22A2
100
AcDbEntity
  8
Defpoints
 62
     0
100
AcDbPoint
 10
44.18313474458615
 20
-3.949100937671005
 30
0.0
  0
POINT
  5
23D2
330
22A2
100
AcDbEntity
  8
Defpoints
 62
     0
100
AcDbPoint
 10
164.1831347445861
 20
-3.949100937671005
 30
0.0
  0
POINT
  5
23D3
330
22A2
100
AcDbEntity
  8
Defpoints
 62
     0
100
AcDbPoint
 10
164.1831347445861
 20
-25.42910180392005
 30
0.0
  0
ENDBLK
  5
22A4
330
22A2
100
AcDbEntity
  8
0
100
AcDbBlockEnd
  0
BLOCK
  5
22FD
330
22FC
100
AcDbEntity
  8
0
100
AcDbBlockBegin
  2
*D9
 70
     1
 10
0.0
 20
0.0
 30
0.0
  3
*D9
  1

  0
LINE
  5
2347
330
22FC
100
AcDbEntity
  8
0
 62
     0
370
    -2
100
AcDbLine
 10
144.6813411313123
 20
38.99809473828613
 30
0.0
 11
137.1096353060067
 21
44.01568532934454
 31
0.0
  0
LINE
  5
2348
330
22FC
100
AcDbEntity
  8
0
 62
     0
370
    -2
100
AcDbLine
 10
71.25663418316553
 20
87.65491358919181
 30
0.0
 11
69.17267845143005
 21
89.03590182526292
 31
0.0
  0
MTEXT
  5
2349
330
22FC
100
AcDbEntity
  8
0
 62
     0
370
    13
100
AcDbMText
 10
142.9732072615806
 20
42.37936271458138
 30
0.0
 40
2.5
 41
0.0
 46
0.0
 71
     5
 72
     1
  1
∅74
 11
0.833582292694194
 21
-0.5523952944284477
 31
0.0
 73
     1
 44
1.0
  0
LINE
  5
234A
330
22FC
100
AcDbEntity
  8
0
 62
     0
370
    -2
100
AcDbLine
 10
73.34058991490102
 20
86.27392535312068
 30
0.0
 11
135.0256795742712
 21
45.39667356541565
 31
0.0
  0
SOLID
  5
234B
330
22FC
100
AcDbEntity
  8
0
 62
     0
100
AcDbTrace
 10
71.48679888917738
 20
88.00223954448105
 30
0.0
 11
71.02646947715368
 21
87.30758763390253
 31
0.0
 12
73.34058991490102
 22
86.27392535312068
 32
0.0
 13
73.34058991490102
 23
86.27392535312068
 33
0.0
  0
SOLID
  5
234C
330
22FC
100
AcDbEntity
  8
0
 62
     0
100
AcDbTrace
 10
137.3398000120185
 20
44.36301128463378
 30
0.0
 11
136.8794705999949
 21
43.66835937405527
 31
0.0
 12
135.0256795742712
 22
45.39667356541565
 32
0.0
 13
135.0256795742712
 23
45.39667356541565
 33
0.0
  0
POINT
  5
234D
330
22FC
100
AcDbEntity
  8
Defpoints
 62
     0
100
AcDbPoint
 10
135.0256795742712
 20
45.39667356541565
 30
0.0
  0
POINT
  5
234E
330
22FC
100
AcDbEntity
  8
Defpoints
 62
     0
100
AcDbPoint
 10
73.34058991490102
 20
86.27392535312068
 30
0.0
  0
ENDBLK
  5
22FE
330
22FC
100
AcDbEntity
  8
0
100
AcDbBlockEnd
  0
ENDSEC
  0
SECTION
  2
ENTITIES
  0
TEXT
  5
873
330
1F
100
AcDbEntity
  8
0
  6
Continuous
 62
     2
100
AcDbText
 10
96.06805572839386
 20
-57.93414024692955
 30
0.0
 40
2.0
  1
 
 41
0.8
100
AcDbText
  0
TEXT
  5
878
330
1F
100
AcDbEntity
  8
0
  6
Continuous
 62
     2
100
AcDbText
 10
96.06805572839386
 20
-72.93414024692956
 30
0.0
 40
2.0
  1
 
 41
0.8
100
AcDbText
  0
TEXT
  5
8B3
330
1F
100
AcDbEntity
  8
0
  6
Continuous
 62
     5
100
AcDbText
 10
323.1702505361
 20
29.5333504477
 30
0.0
 40
2.0
  1
 
 41
0.8
 72
     1
 11
323.9702505361
 21
29.5333504477
 31
0.0
100
AcDbText
  0
TEXT
  5
8B4
330
1F
100
AcDbEntity
  8
0
  6
Continuous
 62
     5
100
AcDbText
 10
323.1702505361
 20
25.0333504477
 30
0.0
 40
2.0
  1
 
 41
0.8
 72
     1
 11
323.9702505361
 21
25.0333504477
 31
0.0
100
AcDbText
  0
TEXT
  5
8B5
330
1F
100
AcDbEntity
  8
0
  6
Continuous
 62
     5
100
AcDbText
 10
345.1702505361
 20
20.5333504477
 30
0.0
 40
2.0
  1
 
 41
0.8
 72
     1
 11
345.9702505361
 21
20.5333504477
 31
0.0
100
AcDbText
  0
TEXT
  5
1CE3
330
1F
100
AcDbEntity
  8
text
 62
     7
100
AcDbText
 10
85.43738602899356
 20
-46.65380392216909
 30
0.0
 40
1.749599999999994
  1
CorDex Instruments Ltd.
100
AcDbText
  0
LINE
  5
1CE9
330
1F
100
AcDbEntity
  8
text
100
AcDbLine
 10
149.2769186772824
 20
-43.24180599860289
 30
0.0
 11
249.6059810772822
 21
-43.24180599860289
 31
0.0
  0
LINE
  5
1CEA
330
1F
100
AcDbEntity
  8
text
100
AcDbLine
 10
149.2769186772824
 20
-43.24180599860289
 30
0.0
 11
149.2769186772824
 21
-64.34275959860279
 31
0.0
  0
LINE
  5
1CEB
330
1F
100
AcDbEntity
  8
text
100
AcDbLine
 10
149.2769186772824
 20
-46.82498679860287
 30
0.0
 11
249.6059810772822
 21
-46.82498679860287
 31
0.0
  0
LINE
  5
1CEC
330
1F
100
AcDbEntity
  8
text
100
AcDbLine
 10
149.2769186772824
 20
-50.40816759860287
 30
0.0
 11
249.6059810772822
 21
-50.40816759860287
 31
0.0
  0
LINE
  5
1CED
330
1F
100
AcDbEntity
  8
text
100
AcDbLine
 10
149.2769186772824
 20
-53.99134839860284
 30
0.0
 11
249.6059810772822
 21
-53.99134839860284
 31
0.0
  0
LINE
  5
1CEE
330
1F
100
AcDbEntity
  8
text
100
AcDbLine
 10
149.2769186772824
 20
-57.57452919860284
 30
0.0
 11
249.6059810772822
 21
-57.57452919860284
 31
0.0
  0
LINE
  5
1CEF
330
1F
100
AcDbEntity
  8
text
100
AcDbLine
 10
149.2769186772824
 20
-61.15770999860284
 30
0.0
 11
249.6059810772822
 21
-61.15770999860284
 31
0.0
  0
LINE
  5
1CF0
330
1F
100
AcDbEntity
  8
text
100
AcDbLine
 10
149.2769186772824
 20
-64.34275959860279
 30
0.0
 11
249.6059810772822
 21
-64.34275959860279
 31
0.0
  0
LINE
  5
1CF1
330
1F
100
AcDbEntity
  8
text
100
AcDbLine
 10
159.6283298772824
 20
-43.24180599860289
 30
0.0
 11
159.6283298772824
 21
-64.34275959860279
 31
0.0
  0
LINE
  5
1CF2
330
1F
100
AcDbEntity
  8
text
100
AcDbLine
 10
166.7946914772824
 20
-43.24180599860289
 30
0.0
 11
166.7946914772824
 21
-64.34275959860279
 31
0.0
  0
LINE
  5
1CF3
330
1F
100
AcDbEntity
  8
text
100
AcDbLine
 10
173.9610530772823
 20
-43.24180599860289
 30
0.0
 11
173.9610530772823
 21
-64.34275959860279
 31
0.0
  0
LINE
  5
1CF4
330
1F
100
AcDbEntity
  8
text
100
AcDbLine
 10
181.1274146772823
 20
-43.24180599860289
 30
0.0
 11
181.1274146772823
 21
-64.34275959860279
 31
0.0
  0
LINE
  5
1CF5
330
1F
100
AcDbEntity
  8
text
100
AcDbLine
 10
188.2937762772823
 20
-43.24180599860289
 30
0.0
 11
188.2937762772823
 21
-64.34275959860279
 31
0.0
  0
LINE
  5
1CF6
330
1F
100
AcDbEntity
  8
text
100
AcDbLine
 10
216.1629602772823
 20
-43.24180599860289
 30
0.0
 11
216.1629602772823
 21
-64.34275959860279
 31
0.0
  0
LINE
  5
1CF7
330
1F
100
AcDbEntity
  8
text
100
AcDbLine
 10
249.6059810772822
 20
-43.24180599860289
 30
0.0
 11
249.6059810772822
 21
-64.34275959860279
 31
0.0
  0
TEXT
  5
1CF8
330
1F
100
AcDbEntity
  8
text
 62
     7
100
AcDbText
 10
152.1169212372824
 20
-45.82965879860287
 30
0.0
 40
1.592524799999994
  1
Date
 41
0.8
 72
     1
 11
154.4526242772825
 21
-45.82965879860287
 31
0.0
100
AcDbText
  0
TEXT
  5
1CF9
330
1F
100
AcDbEntity
  8
text
 62
     7
100
AcDbText
 10
161.5128175572824
 20
-45.82965879860287
 30
0.0
 40
1.592524799999994
  1
Rev
 41
0.8
 72
     1
 11
163.2115106772824
 21
-45.82965879860287
 31
0.0
100
AcDbText
  0
TEXT
  5
1CFA
330
1F
100
AcDbEntity
  8
text
 62
     7
100
AcDbText
 10
168.6791791572824
 20
-45.82965879860287
 30
0.0
 40
1.592524799999994
  1
Drn
 41
0.8
 72
     1
 11
170.3778722772824
 21
-45.82965879860287
 31
0.0
100
AcDbText
  0
TEXT
  5
1CFB
330
1F
100
AcDbEntity
  8
text
 62
     7
100
AcDbText
 10
175.8455407572823
 20
-45.82965879860287
 30
0.0
 40
1.592524799999994
  1
Chk
 41
0.8
 72
     1
 11
177.5442338772823
 21
-45.82965879860287
 31
0.0
100
AcDbText
  0
TEXT
  5
1CFC
330
1F
100
AcDbEntity
  8
text
 62
     7
100
AcDbText
 10
183.0119023572823
 20
-45.82965879860287
 30
0.0
 40
1.592524799999994
  1
App
 41
0.8
 72
     1
 11
184.7105954772823
 21
-45.82965879860287
 31
0.0
100
AcDbText
  0
TEXT
  5
1CFD
330
1F
100
AcDbEntity
  8
text
 62
     7
100
AcDbText
 10
196.2829423572823
 20
-45.82965879860287
 30
0.0
 40
1.592524799999994
  1
Description
 41
0.8
 72
     1
 11
202.2283682772823
 21
-45.82965879860287
 31
0.0
100
AcDbText
  0
TEXT
  5
1CFE
330
1F
100
AcDbEntity
  8
text
 62
     7
100
AcDbText
 10
230.6549359572822
 20
-45.82965879860287
 30
0.0
 40
1.592524799999994
  1
Title
 41
0.8
 72
     1
 11
232.8844706772822
 21
-45.82965879860287
 31
0.0
100
AcDbText
  0
TEXT
  5
1CFF
330
1F
100
AcDbEntity
  8
text
 62
     7
100
AcDbText
 10
150.5509385172824
 20
-49.31330679860285
 30
0.0
 40
1.393459199999995
  1
05/02/12
 41
0.8
 72
     1
 11
154.4526242772825
 21
-49.31330679860285
 31
0.0
100
AcDbText
  0
TEXT
  5
1D00
330
1F
100
AcDbEntity
  8
text
 62
     7
100
AcDbText
 10
162.7868373972824
 20
-49.41283959860285
 30
0.0
 40
1.592524799999994
  1
A
 41
0.8
 72
     1
 11
163.2115106772824
 21
-49.41283959860285
 31
0.0
100
AcDbText
  0
TEXT
  5
1D01
330
1F
100
AcDbEntity
  8
text
 62
     7
100
AcDbText
 10
169.3161890772825
 20
-49.41283959860285
 30
0.0
 40
1.592524799999994
  1
RK
 41
0.8
 72
     1
 11
170.3778722772824
 21
-49.41283959860285
 31
0.0
100
AcDbText
  0
TEXT
  5
1D02
330
1F
100
AcDbEntity
  8
text
 62
     7
100
AcDbText
 10
176.4825506772823
 20
-49.41283959860285
 30
0.0
 40
1.592524799999994
  1
MH
 41
0.8
 72
     1
 11
177.5442338772823
 21
-49.41283959860285
 31
0.0
100
AcDbText
  0
TEXT
  5
1D03
330
1F
100
AcDbEntity
  8
text
 62
     7
100
AcDbText
 10
194.9027541972823
 20
-49.41283959860285
 30
0.0
 40
1.592524799999994
  1
Original Issue
 41
0.8
 72
     1
 11
202.2283682772823
 21
-49.41283959860285
 31
0.0
100
AcDbText
  0
TEXT
  5
1D04
330
1F
100
AcDbEntity
  8
text
100
AcDbText
 10
314.7113065150029
 20
-114.2898299709726
 30
0.0
 40
2.48831999999999
  1
 
 41
0.8
 72
     1
 11
315.7066345150029
 21
-114.2898299709726
 31
0.0
100
AcDbText
  0
TEXT
  5
1D05
330
1F
100
AcDbEntity
  8
text
 62
     7
100
AcDbText
 10
227.7883913172822
 20
-52.99602039860284
 30
0.0
 40
1.592524799999994
  1
Sheet No.
 41
0.8
 72
     1
 11
232.8844706772822
 21
-52.99602039860284
 31
0.0
100
AcDbText
  0
MTEXT
  5
1D06
330
1F
100
AcDbEntity
  8
text
 62
     7
100
AcDbMText
 10
232.8844706772823
 20
-54.98667639860287
 30
0.0
 40
1.592524799999994
 41
7.644119039999971
 46
0.0
 71
     2
 72
     1
  1
1 of 1
 73
     1
 44
1.0
  0
MTEXT
  5
1D07
330
1F
100
AcDbEntity
  8
text
 62
     7
100
AcDbMText
 10
221.7008098013466
 20
-61.81689335242818
 30
0.0
 40
1.592524799999994
 41
22.93235711999993
 46
0.0
 71
     1
 72
     1
  1
DRG No._CDX0075-30
 73
     1
 44
1.0
  0
LINE
  5
1D08
330
1F
100
AcDbEntity
  8
text
100
AcDbLine
 10
216.157390175988
 20
-36.08754143189494
 30
0.0
 11
249.6004109759878
 21
-36.08754143189494
 31
0.0
  0
LINE
  5
1D09
330
1F
100
AcDbEntity
  8
text
100
AcDbLine
 10
216.157390175988
 20
-36.08754143189494
 30
0.0
 11
216.157390175988
 21
-43.2539030318949
 31
0.0
  0
LINE
  5
1D0A
330
1F
100
AcDbEntity
  8
text
100
AcDbLine
 10
216.157390175988
 20
-39.67072223189489
 30
0.0
 11
249.6004109759878
 21
-39.67072223189489
 31
0.0
  0
LINE
  5
1D0B
330
1F
100
AcDbEntity
  8
text
100
AcDbLine
 10
216.157390175988
 20
-43.2539030318949
 30
0.0
 11
249.6004109759878
 21
-43.2539030318949
 31
0.0
  0
LINE
  5
1D0C
330
1F
100
AcDbEntity
  8
text
100
AcDbLine
 10
249.6004109759878
 20
-36.08754143189494
 30
0.0
 11
249.6004109759878
 21
-43.2539030318949
 31
0.0
  0
TEXT
  5
1D0D
330
1F
100
AcDbEntity
  8
text
 62
     7
100
AcDbText
 10
228.738336095988
 20
-38.67539423189492
 30
0.0
 40
1.592524799999994
  1
Material
 41
0.8
 72
     1
 11
232.878900575988
 21
-38.67539423189492
 31
0.0
100
AcDbText
  0
TEXT
  5
1D0E
330
1F
100
AcDbEntity
  8
text
 62
     7
100
AcDbText
 10
229.056841055988
 20
-42.2585750318949
 30
0.0
 40
1.592524799999994
  1
various
 41
0.8
 72
     1
 11
232.878900575988
 21
-42.2585750318949
 31
0.0
100
AcDbText
  0
LINE
  5
1D0F
330
1F
100
AcDbEntity
  8
text
100
AcDbLine
 10
-64.43437145869419
 20
-64.33969276944431
 30
0.0
 11
-64.43437145869419
 21
157.5021976844872
 31
0.0
  0
LINE
  5
1D10
330
1F
100
AcDbEntity
  8
text
100
AcDbLine
 10
-71.07560778443678
 20
-71.4419393171746
 30
0.0
 11
-71.07560778443678
 21
164.6044442322175
 31
0.0
  0
LINE
  5
1D11
330
1F
100
AcDbEntity
  8
text
100
AcDbLine
 10
249.6095633927837
 20
-64.33969276944431
 30
0.0
 11
-64.43437145869419
 21
-64.33969276944431
 31
0.0
  0
LINE
  5
1D12
330
1F
100
AcDbEntity
  8
text
100
AcDbLine
 10
256.2507997185264
 20
-71.4419393171746
 30
0.0
 11
-71.07560778443678
 21
-71.4419393171746
 31
0.0
  0
LINE
  5
1D13
330
1F
100
AcDbEntity
  8
text
100
AcDbLine
 10
249.6095633927837
 20
-43.25239207159683
 30
0.0
 11
26.94994338449296
 21
-43.25239207159683
 31
0.0
  0
LINE
  5
1D14
330
1F
100
AcDbEntity
  8
text
100
AcDbLine
 10
26.94994338449296
 20
-43.25239207159683
 30
0.0
 11
26.94994338449296
 21
-64.36117320872509
 31
0.0
  0
LINE
  5
1D15
330
1F
100
AcDbEntity
  8
text
100
AcDbLine
 10
83.98048012267437
 20
-43.30832432232488
 30
0.0
 11
83.98048012267437
 21
-64.30352432232481
 31
0.0
  0
LINE
  5
1D16
330
1F
100
AcDbEntity
  8
text
100
AcDbLine
 10
-64.43437145869419
 20
157.5021976844872
 30
0.0
 11
249.6095633927837
 21
157.5021976844872
 31
0.0
  0
LINE
  5
1D17
330
1F
100
AcDbEntity
  8
text
100
AcDbLine
 10
-71.07560778443678
 20
164.6044442322175
 30
0.0
 11
256.2507997185263
 21
164.6044442322175
 31
0.0
  0
LINE
  5
1D18
330
1F
100
AcDbEntity
  8
text
100
AcDbLine
 10
249.6095633927837
 20
157.5021976844872
 30
0.0
 11
249.6095633927837
 21
-64.33969276944431
 31
0.0
  0
LINE
  5
1D19
330
1F
100
AcDbEntity
  8
text
100
AcDbLine
 10
256.2507997185263
 20
164.6044442322175
 30
0.0
 11
256.2507997185264
 21
-71.4419393171746
 31
0.0
  0
LINE
  5
1D1A
330
1F
100
AcDbEntity
  8
text
100
AcDbLine
 10
26.94994338449296
 20
-43.25239207159683
 30
0.0
 11
-64.43437145869419
 21
-43.25239207159683
 31
0.0
  0
LINE
  5
1D1C
330
1F
100
AcDbEntity
  8
text
100
AcDbLine
 10
-71.07560778443678
 20
46.58125245752145
 30
0.0
 11
-64.43437145869416
 21
46.58125245752145
 31
0.0
  0
LINE
  5
1D1D
330
1F
100
AcDbEntity
  8
text
100
AcDbLine
 10
249.6095633927837
 20
46.58125245752136
 30
0.0
 11
256.2507997185264
 21
46.58125245752136
 31
0.0
  0
LINE
  5
1D1E
330
1F
100
AcDbEntity
  8
text
100
AcDbLine
 10
-71.07560778443678
 20
105.5928483448695
 30
0.0
 11
-64.43437145869416
 21
105.5928483448695
 31
0.0
  0
LINE
  5
1D1F
330
1F
100
AcDbEntity
  8
text
100
AcDbLine
 10
249.6095633927837
 20
105.5928483448695
 30
0.0
 11
256.2507997185263
 21
105.5928483448695
 31
0.0
  0
LINE
  5
1D20
330
1F
100
AcDbEntity
  8
text
100
AcDbLine
 10
-71.07560778443678
 20
-12.43034342982659
 30
0.0
 11
-64.43437145869416
 21
-12.43034342982659
 31
0.0
  0
LINE
  5
1D21
330
1F
100
AcDbEntity
  8
text
100
AcDbLine
 10
249.6095633927837
 20
-12.43034342982659
 30
0.0
 11
256.2507997185264
 21
-12.43034342982659
 31
0.0
  0
LINE
  5
1D22
330
1F
100
AcDbEntity
  8
text
100
AcDbLine
 10
-30.15980684656639
 20
-71.4419393171746
 30
0.0
 11
-30.15980684656639
 21
-64.33969276944431
 31
0.0
  0
LINE
  5
1D23
330
1F
100
AcDbEntity
  8
text
100
AcDbLine
 10
-30.15980684656639
 20
157.5021976844872
 30
0.0
 11
-30.15980684656639
 21
164.6044442322175
 31
0.0
  0
LINE
  5
1D24
330
1F
100
AcDbEntity
  8
text
100
AcDbLine
 10
10.755994091304
 20
-71.4419393171746
 30
0.0
 11
10.755994091304
 21
-64.33969276944431
 31
0.0
  0
LINE
  5
1D25
330
1F
100
AcDbEntity
  8
text
100
AcDbLine
 10
10.755994091304
 20
157.5021976844872
 30
0.0
 11
10.755994091304
 21
164.6044442322175
 31
0.0
  0
LINE
  5
1D26
330
1F
100
AcDbEntity
  8
text
100
AcDbLine
 10
51.67179502917441
 20
-71.4419393171746
 30
0.0
 11
51.67179502917441
 21
-64.33969276944431
 31
0.0
  0
LINE
  5
1D27
330
1F
100
AcDbEntity
  8
text
100
AcDbLine
 10
51.67179502917441
 20
157.5021976844872
 30
0.0
 11
51.67179502917441
 21
164.6044442322175
 31
0.0
  0
LINE
  5
1D28
330
1F
100
AcDbEntity
  8
text
100
AcDbLine
 10
92.58759596704482
 20
-71.4419393171746
 30
0.0
 11
92.58759596704482
 21
-64.33969276944431
 31
0.0
  0
LINE
  5
1D29
330
1F
100
AcDbEntity
  8
text
100
AcDbLine
 10
92.58759596704477
 20
157.5021976844872
 30
0.0
 11
92.58759596704477
 21
164.6044442322175
 31
0.0
  0
LINE
  5
1D2A
330
1F
100
AcDbEntity
  8
text
100
AcDbLine
 10
133.5033969049151
 20
-71.4419393171746
 30
0.0
 11
133.5033969049151
 21
-64.33969276944431
 31
0.0
  0
LINE
  5
1D2B
330
1F
100
AcDbEntity
  8
text
100
AcDbLine
 10
133.5033969049151
 20
157.5021976844872
 30
0.0
 11
133.5033969049151
 21
164.6044442322175
 31
0.0
  0
LINE
  5
1D2C
330
1F
100
AcDbEntity
  8
text
100
AcDbLine
 10
174.4191978427856
 20
-71.4419393171746
 30
0.0
 11
174.4191978427856
 21
-64.33969276944431
 31
0.0
  0
LINE
  5
1D2D
330
1F
100
AcDbEntity
  8
text
100
AcDbLine
 10
174.4191978427856
 20
157.5021976844872
 30
0.0
 11
174.4191978427856
 21
164.6044442322175
 31
0.0
  0
LINE
  5
1D2E
330
1F
100
AcDbEntity
  8
text
100
AcDbLine
 10
215.3349987806559
 20
-71.4419393171746
 30
0.0
 11
215.3349987806559
 21
-64.33969276944431
 31
0.0
  0
LINE
  5
1D2F
330
1F
100
AcDbEntity
  8
text
100
AcDbLine
 10
215.3349987806559
 20
157.5021976844872
 30
0.0
 11
215.3349987806559
 21
164.6044442322175
 31
0.0
  0
TEXT
  5
1D30
330
1F
100
AcDbEntity
  8
text
100
AcDbText
 10
-50.38523649226712
 20
159.5016549524239
 30
0.0
 40
2.463436799999991
  1
1
 41
0.8
100
AcDbText
  0
TEXT
  5
1D31
330
1F
100
AcDbEntity
  8
text
100
AcDbText
 10
-9.091539965981695
 20
159.5016549524239
 30
0.0
 40
2.463436799999991
  1
2
 41
0.8
100
AcDbText
  0
TEXT
  5
1D32
330
1F
100
AcDbEntity
  8
text
100
AcDbText
 10
31.96207587492196
 20
159.5016549524239
 30
0.0
 40
2.463436799999991
  1
3
 41
0.8
100
AcDbText
  0
TEXT
  5
1D33
330
1F
100
AcDbEntity
  8
text
100
AcDbText
 10
72.53553390112819
 20
159.5016549524239
 30
0.0
 40
2.463436799999991
  1
4
 41
0.8
100
AcDbText
  0
TEXT
  5
1D34
330
1F
100
AcDbEntity
  8
text
100
AcDbText
 10
112.8689112419527
 20
159.5016549524239
 30
0.0
 40
2.463436799999991
  1
5
 41
0.8
100
AcDbText
  0
TEXT
  5
1D35
330
1F
100
AcDbEntity
  8
text
100
AcDbText
 10
154.8828462683172
 20
159.5016549524239
 30
0.0
 40
2.463436799999991
  1
6
 41
0.8
100
AcDbText
  0
TEXT
  5
1D36
330
1F
100
AcDbEntity
  8
text
100
AcDbText
 10
194.9419104541938
 20
159.5016549524239
 30
0.0
 40
2.463436799999991
  1
7
 41
0.8
100
AcDbText
  0
TEXT
  5
1D37
330
1F
100
AcDbEntity
  8
text
100
AcDbText
 10
234.743755494493
 20
159.5016549524239
 30
0.0
 40
2.463436799999991
  1
8
 41
0.8
100
AcDbText
  0
TEXT
  5
1D38
330
1F
100
AcDbEntity
  8
text
100
AcDbText
 10
-50.38523649226712
 20
-68.33327259696817
 30
0.0
 40
2.463436799999991
  1
1
 41
0.8
100
AcDbText
  0
TEXT
  5
1D39
330
1F
100
AcDbEntity
  8
text
100
AcDbText
 10
-9.091539965981695
 20
-68.33327259696817
 30
0.0
 40
2.463436799999991
  1
2
 41
0.8
100
AcDbText
  0
TEXT
  5
1D3A
330
1F
100
AcDbEntity
  8
text
100
AcDbText
 10
31.96207587492196
 20
-68.33327259696817
 30
0.0
 40
2.463436799999991
  1
3
 41
0.8
100
AcDbText
  0
TEXT
  5
1D3B
330
1F
100
AcDbEntity
  8
text
100
AcDbText
 10
72.53553390112819
 20
-68.33327259696817
 30
0.0
 40
2.463436799999991
  1
4
 41
0.8
100
AcDbText
  0
TEXT
  5
1D3C
330
1F
100
AcDbEntity
  8
text
100
AcDbText
 10
112.8689112419527
 20
-68.33327259696817
 30
0.0
 40
2.463436799999991
  1
5
 41
0.8
100
AcDbText
  0
TEXT
  5
1D3D
330
1F
100
AcDbEntity
  8
text
100
AcDbText
 10
154.8828462683172
 20
-68.33327259696817
 30
0.0
 40
2.463436799999991
  1
6
 41
0.8
100
AcDbText
  0
TEXT
  5
1D3E
330
1F
100
AcDbEntity
  8
text
100
AcDbText
 10
194.9419104541938
 20
-68.33327259696817
 30
0.0
 40
2.463436799999991
  1
7
 41
0.8
100
AcDbText
  0
TEXT
  5
1D3F
330
1F
100
AcDbEntity
  8
text
100
AcDbText
 10
234.743755494493
 20
-68.33327259696817
 30
0.0
 40
2.463436799999991
  1
8
 41
0.8
100
AcDbText
  0
TEXT
  5
1D40
330
1F
100
AcDbEntity
  8
text
100
AcDbText
 10
-68.56960242681916
 20
131.1976205265834
 30
0.0
 40
2.463436799999991
  1
A
 41
0.8
100
AcDbText
  0
TEXT
  5
1D41
330
1F
100
AcDbEntity
  8
text
100
AcDbText
 10
-68.20429132038668
 20
76.89880388290228
 30
0.0
 40
2.463436799999991
  1
B
 41
0.8
100
AcDbText
  0
TEXT
  5
1D42
330
1F
100
AcDbEntity
  8
text
100
AcDbText
 10
-68.29530527416835
 20
15.2597115660277
 30
0.0
 40
2.463436799999991
  1
C
 41
0.8
100
AcDbText
  0
TEXT
  5
1D43
330
1F
100
AcDbEntity
  8
text
100
AcDbText
 10
-68.48182093705208
 20
-40.15244554775427
 30
0.0
 40
2.463436799999991
  1
D
 41
0.8
100
AcDbText
  0
TEXT
  5
1D44
330
1F
100
AcDbEntity
  8
text
100
AcDbText
 10
251.7658060936756
 20
131.1976205265833
 30
0.0
 40
2.463436799999991
  1
A
 41
0.8
100
AcDbText
  0
TEXT
  5
1D45
330
1F
100
AcDbEntity
  8
text
100
AcDbText
 10
252.131117200108
 20
76.8988038829022
 30
0.0
 40
2.463436799999991
  1
B
 41
0.8
100
AcDbText
  0
TEXT
  5
1D46
330
1F
100
AcDbEntity
  8
text
100
AcDbText
 10
252.0401032463263
 20
15.25971156602762
 30
0.0
 40
2.463436799999991
  1
C
 41
0.8
100
AcDbText
  0
TEXT
  5
1D47
330
1F
100
AcDbEntity
  8
text
100
AcDbText
 10
251.8535875834426
 20
-40.15244554775435
 30
0.0
 40
2.463436799999991
  1
D
 41
0.8
100
AcDbText
  0
MTEXT
  5
210F
330
1F
100
AcDbEntity
  8
FORMAT
100
AcDbMText
 10
-62.93810921488792
 20
-45.05177659822696
 30
0.0
 40
1.92
 41
0.0
 46
0.0
 71
     1
 72
     1
  1
SCALE:1:1
  7
SLDTEXTSTYLE0
 73
     1
 44
1.0
  0
OLE2FRAME
  5
2110
330
1F
100
AcDbEntity
  8
0
100
AcDbOle2Frame
 70
     2
  1
OLE
1001
ACAD
1000
OLEBEGIN
1070
    70
1070
     1
1070
    71
1070
     1
1070
    40
1040
0.0
1070
    41
1040
40.34139039729734
1070
    42
1040
16.81807283593054
1070
    72
1070
     0
1070
     3
1000

1070
    90
1071
        0
1070
    43
1040
0.0
1070
     4
1000

1070
    91
1071
        0
1070
    44
1040
0.0
1000
OLEEND
  0
TEXT
  5
212D
330
1F
100
AcDbEntity
  8
text
 62
     7
100
AcDbText
 10
228.313662815988
 20
-49.41283959860285
 30
0.0
 40
1.592524799999994
  1
Assembly
 41
0.8
 72
     1
 11
232.878900575988
 21
-49.41283959860285
 31
0.0
100
AcDbText
  0
CIRCLE
  5
2154
330
1F
100
AcDbEntity
  8
0
100
AcDbCircle
 10
81.18313474458608
 20
105.6724680333525
 30
0.0
 40
2.500000000000025
  0
CIRCLE
  5
2155
330
1F
100
AcDbEntity
  8
0
100
AcDbCircle
 10
150.1831347445863
 20
65.83529945926814
 30
0.0
 40
2.499999999999989
  0
CIRCLE
  5
2156
330
1F
100
AcDbEntity
  8
0
100
AcDbCircle
 10
81.18313474458606
 20
25.99813088518386
 30
0.0
 40
2.500000000000011
  0
CIRCLE
  5
2157
330
1F
100
AcDbEntity
  8
0
100
AcDbCircle
 10
104.1831347445861
 20
65.83529945926816
 30
0.0
 40
53.0
  0
CIRCLE
  5
2158
330
1F
100
AcDbEntity
  8
0
100
AcDbCircle
 10
104.1831347445861
 20
65.83529945926816
 30
0.0
 40
36.99999999999994
  0
POINT
  5
2160
330
1F
100
AcDbEntity
  8
center
 62
     1
100
AcDbPoint
 10
150.1831347445863
 20
65.83529945926814
 30
0.0
  0
POINT
  5
2161
330
1F
100
AcDbEntity
  8
center
 62
     1
100
AcDbPoint
 10
81.18313474458606
 20
25.99813088518386
 30
0.0
  0
POINT
  5
2162
330
1F
100
AcDbEntity
  8
center
 62
     1
100
AcDbPoint
 10
81.18313474458608
 20
105.6724680333525
 30
0.0
  0
LINE
  5
2164
330
1F
100
AcDbEntity
  8
0
100
AcDbLine
 10
44.18313474458615
 20
-3.949100937671005
 30
0.0
 11
164.1831347445861
 21
-3.949100937671005
 31
0.0
  0
LINE
  5
2166
330
1F
100
AcDbEntity
  8
0
100
AcDbLine
 10
44.18313474458615
 20
136.050899062329
 30
0.0
 11
164.1831347445861
 21
136.050899062329
 31
0.0
  0
LINE
  5
2167
330
1F
100
AcDbEntity
  8
0
100
AcDbLine
 10
44.18313474458615
 20
136.050899062329
 30
0.0
 11
44.18313474458615
 21
-3.949100937671005
 31
0.0
  0
LINE
  5
2168
330
1F
100
AcDbEntity
  8
0
100
AcDbLine
 10
164.1831347445861
 20
-3.949100937671005
 30
0.0
 11
164.1831347445861
 21
136.050899062329
 31
0.0
  0
TEXT
  5
2182
330
1F
100
AcDbEntity
  8
0
100
AcDbText
 10
106.3567171634922
 20
68.58193721880789
 30
0.0
 40
3.0
  1
B
100
AcDbText
  0
TEXT
  5
218A
330
1F
100
AcDbEntity
  8
0
100
AcDbText
 10
86.01806343257289
 20
21.35377782227781
 30
0.0
 40
3.0
  1
A
100
AcDbText
  0
TEXT
  5
218B
330
1F
100
AcDbEntity
  8
0
100
AcDbText
 10
152.5005995742826
 20
70.69504395293737
 30
0.0
 40
3.0
  1
A
100
AcDbText
  0
TEXT
  5
218C
330
1F
100
AcDbEntity
  8
0
100
AcDbText
 10
85.46599614026087
 20
107.2282700711171
 30
0.0
 40
3.0
  1
A
100
AcDbText
  0
POINT
  5
2192
330
1F
100
AcDbEntity
  8
center
 62
     1
100
AcDbPoint
 10
104.1831347445861
 20
65.83529945926816
 30
0.0
  0
LINE
  5
21BA
330
1F
100
AcDbEntity
  8
center
 62
     1
100
AcDbLine
 10
157.1826962221225
 20
66.05089906232899
 30
0.0
 11
164.1831347445861
 21
66.05089906232899
 31
0.0
  0
LINE
  5
21BB
330
1F
100
AcDbEntity
  8
center
 62
     1
100
AcDbLine
 10
51.18313474458613
 20
65.83529945926816
 30
0.0
 11
44.18313474458615
 21
65.83529945926816
 31
0.0
  0
LINE
  5
21BD
330
1F
100
AcDbEntity
  8
center
 62
     1
100
AcDbLine
 10
104.1831347445861
 20
118.8352994592681
 30
0.0
 11
104.1831347445861
 21
123.6660348199579
 31
0.0
  0
LINE
  5
21BE
330
1F
100
AcDbEntity
  8
center
 62
     1
100
AcDbLine
 10
104.1831347445861
 20
12.83529945926815
 30
0.0
 11
104.1831347445861
 21
7.737251759097148
 31
0.0
  0
LINE
  5
21CC
330
1F
100
AcDbEntity
  8
center
 62
     1
100
AcDbLine
 10
104.1831347445861
 20
131.4021531871437
 30
0.0
 11
104.1831347445861
 21
136.050899062329
 31
0.0
  0
LINE
  5
21CD
330
1F
100
AcDbEntity
  8
center
 62
     1
100
AcDbLine
 10
104.1831347445861
 20
0.482196921437776
 30
0.0
 11
104.1831347445862
 21
-3.949100937671005
 31
0.0
  0
MTEXT
  5
2261
330
1F
100
AcDbEntity
  8
0
100
AcDbMText
 10
46.39749303470923
 20
13.35263120588217
 30
0.0
 40
2.5
 41
55.46394720513399
 46
0.0
 71
     1
 72
     5
  1
\A1;{\fCalibri|b0|i0|c0|p34;Hole A - 3 off 3.6mm (\H0.7x;\S9#64;\H1.4286x;")\PHole B - 1 off 6mm (\H0.7x;\S1#4;\H1.4286x;") Increase to between 73mm - 74mm (2 \H0.7x;\S7#8;\H1.4286x;")}
 73
     1
 44
1.0
  0
MTEXT
  5
2262
330
1F
100
AcDbEntity
  8
0
100
AcDbMText
 10
62.11663016826356
 20
132.3349626661876
 30
0.0
 40
3.0
 41
57.55698557754818
 46
0.0
 71
     1
 72
     5
  1
{\fCalibri|b0|i0|c0|p34;IW3000 Drilling Reference\P\H0.66667x;Part No: CDX0075-30}
 73
     1
 44
1.0
  0
MTEXT
  5
227D
330
1F
100
AcDbEntity
  8
0
100
AcDbMText
 10
62.05881115085003
 20
122.4498235803031
 30
0.0
 40
3.0
 41
57.55698557754818
 46
0.0
 71
     1
 72
     5
  1
{\fCalibri|b0|i0|c0|p34;Use on front face }
 73
     1
 44
1.0
  0
MTEXT
  5
227E
330
1F
100
AcDbEntity
  8
0
100
AcDbMText
 10
133.0730229444796
 20
13.35263120588217
 30
0.0
 40
2.5
 41
55.46394720513399
 46
0.0
 71
     1
 72
     5
  1
\A1;{\fCalibri|b0|i0|c0|p34;\H1.2x;\C1;WARNING: \P\H0.83333x;\C256;Ensure rear face\Pis clear before drilling.}
 73
     1
 44
1.0
  0
LINE
  5
2290
330
1F
100
AcDbEntity
  8
0
100
AcDbLine
 10
44.22628336738401
 20
117.6411361977518
 30
0.0
 11
62.63604623196115
 21
136.050899062329
 31
0.0
  0
MTEXT
  5
2291
330
1F
100
AcDbEntity
  8
0
100
AcDbMText
 10
43.30401818272116
 20
130.2210384980553
 30
0.0
 40
3.0
 41
57.55698557754818
 46
0.0
 71
     1
 72
     5
  1
{\fCalibri|b0|i0|c0|p34; \H0.83333x;   To \PRemove}
 11
0.7071067811865476
 21
0.7071067811865475
 31
0.0
 73
     1
 44
1.0
  0
DIMENSION
  5
2293
330
1F
100
AcDbEntity
  8
text
100
AcDbDimension
  2
*D7
 10
211.2340747345145
 20
136.0508990623289
 30
0.0
 11
211.2340747345145
 21
66.05089906232901
 31
0.0
 70
    32
 71
     5
 42
140.0
 73
     0
 74
     0
 75
     0
  3
STANDARD
100
AcDbAlignedDimension
 13
164.1831347445861
 23
-3.949100937671005
 33
0.0
 14
164.1831347445861
 24
136.050899062329
 34
0.0
 50
270.0
100
AcDbRotatedDimension
1001
ACAD
1000
DSTYLE
1002
{
1070
    41
1040
5.0
1070
    42
1040
6.25
1070
    43
1040
15.96
1070
    44
1040
7.559999999999999
1070
    47
1040
0.5
1070
    48
1040
0.5
1070
   140
1040
5.0
1070
   141
1040
0.0
1070
   147
1040
3.0
1070
   271
1070
     1
1070
   272
1070
     1
1070
   288
1070
     1
1070
   343
1005
0
1070
   344
1005
0
1002
}
  0
DIMENSION
  5
22A1
330
1F
100
AcDbEntity
  8
text
100
AcDbDimension
  2
*D8
 10
164.1831347445861
 20
-25.42910180392005
 30
0.0
 11
104.1831347445861
 21
-25.42910180392005
 31
0.0
 70
    32
 71
     5
 42
120.0
 73
     0
 74
     0
 75
     0
  3
STANDARD
100
AcDbAlignedDimension
 13
44.18313474458615
 23
-3.949100937671005
 33
0.0
 14
164.1831347445861
 24
-3.949100937671005
 34
0.0
100
AcDbRotatedDimension
1001
ACAD
1000
DSTYLE
1002
{
1070
    41
1040
5.0
1070
    42
1040
6.25
1070
    43
1040
15.96
1070
    44
1040
7.559999999999999
1070
    47
1040
0.5
1070
    48
1040
0.5
1070
   140
1040
5.0
1070
   141
1040
0.0
1070
   147
1040
3.0
1070
   271
1070
     1
1070
   272
1070
     1
1070
   288
1070
     1
1070
   343
1005
0
1070
   344
1005
0
1002
}
  0
DIMENSION
  5
22FB
330
1F
100
AcDbEntity
  8
0
370
    13
100
AcDbDimension
  2
*D9
 10
73.34058991490102
 20
86.27392535312068
 30
0.0
 11
142.9732072615806
 21
42.37936271458138
 31
0.0
 70
    35
 71
     5
 42
73.99999999999986
 73
     0
 74
     0
 75
     0
  3
ISO-25
100
AcDbDiametricDimension
 15
135.0256795742712
 25
45.39667356541565
 35
0.0
 40
0.0
1001
ACAD
1000
DSTYLE
1002
{
1070
   288
1070
     1
1002
}
1001
ACAD_DSTYLE_DIMRADIAL_EXTENSION
1070
   387
1070
     1
1070
   388
1040
0.0
1070
   390
1040
0.0
  0
OLE2FRAME
  5
236A
330
1F
100
AcDbEntity
  8
0
100
AcDbOle2Frame
 70
     2
  1
OLE
1001
ACAD
1000
OLEBEGIN
1070
    70
1070
     1
1070
    71
1070
     1
1070
    40
1040
0.0
1070
    41
1040
40.34139039729734
1070
    42
1040
16.81807283593053
1070
    72
1070
     0
1070
     3
1000

1070
    90
1071
        0
1070
    43
1040
0.0
1070
     4
1000

1070
    91
1071
        0
1070
    44
1040
0.0
1000
OLEEND
  0
MTEXT
  5
236B
330
1F
100
AcDbEntity
  8
0
100
AcDbMText
 10
134.0889086146428
 20
122.2198465869176
 30
0.0
 40
2.299999999999999
 41
57.55698557754818
 46
0.0
 71
     1
 72
     5
  1
{\fCalibri|b0|i0|c0|p34;www.irwindows.com}
 73
     1
 44
1.0
  0
ENDSEC
  0
SECTION
  2
OBJECTS
  0
DICTIONARY
  5
33E
330
0
100
AcDbDictionary
281
     1
  3
ACAD_COLOR
350
3D1
  3
ACAD_GROUP
350
33F
  3
ACAD_LAYOUT
350
347
  3
ACAD_MATERIAL
350
3D0
  3
ACAD_MLEADERSTYLE
350
CF2
  3
ACAD_MLINESTYLE
350
340
  3
ACAD_PLOTSETTINGS
350
348
  3
ACAD_PLOTSTYLENAME
350
345
  3
ACAD_SCALELIST
350
CD0
  3
ACAD_TABLESTYLE
350
3D2
  3
ACAD_VISUALSTYLE
350
CBF
  3
ACDB_RECOMPOSE_DATA
350
D6F
  3
AcDbVariableDictionary
350
3C4
  3
ASE_INDEX_DICTIONARY
350
2141
  0
DICTIONARY
  5
569
330
2
100
AcDbDictionary
280
     1
281
     1
  3
ACAD_LAYERFILTERS
360
220A
  3
ACAD_LAYERSTATES
360
844
  3
ACLYDICTIONARY
360
2209
  0
DICTIONARY
  5
D55
330
10
100
AcDbDictionary
280
     1
281
     1
  3
ADSK_XREC_LAYER_RECONCILED
360
D56
  0
DICTIONARY
  5
D57
330
1FA
100
AcDbDictionary
280
     1
281
     1
  3
ADSK_XREC_LAYER_RECONCILED
360
D58
  0
DICTIONARY
  5
D59
330
1FB
100
AcDbDictionary
280
     1
281
     1
  3
ADSK_XREC_LAYER_RECONCILED
360
D5A
  0
DICTIONARY
  5
D5B
330
1FC
100
AcDbDictionary
280
     1
281
     1
  3
ADSK_XREC_LAYER_RECONCILED
360
D5C
  0
DICTIONARY
  5
D5D
330
1FD
100
AcDbDictionary
280
     1
281
     1
  3
ADSK_XREC_LAYER_RECONCILED
360
D5E
  0
DICTIONARY
  5
D5F
330
1FE
100
AcDbDictionary
280
     1
281
     1
  3
ADSK_XREC_LAYER_RECONCILED
360
D60
  0
DICTIONARY
  5
D61
330
1FF
100
AcDbDictionary
280
     1
281
     1
  3
ADSK_XREC_LAYER_RECONCILED
360
D62
  0
DICTIONARY
  5
D63
330
200
100
AcDbDictionary
280
     1
281
     1
  3
ADSK_XREC_LAYER_RECONCILED
360
D64
  0
DICTIONARY
  5
D65
330
201
100
AcDbDictionary
280
     1
281
     1
  3
ADSK_XREC_LAYER_RECONCILED
360
D66
  0
DICTIONARY
  5
D67
330
202
100
AcDbDictionary
280
     1
281
     1
  3
ADSK_XREC_LAYER_RECONCILED
360
D68
  0
DICTIONARY
  5
D69
330
203
100
AcDbDictionary
280
     1
281
     1
  3
ADSK_XREC_LAYER_RECONCILED
360
D6A
  0
DICTIONARY
  5
D6B
330
8BC
100
AcDbDictionary
280
     1
281
     1
  3
ADSK_XREC_LAYER_RECONCILED
360
D6C
  0
DICTIONARY
  5
2104
330
2103
100
AcDbDictionary
280
     1
281
     1
  0
DICTIONARY
  5
41C
330
1F
100
AcDbDictionary
280
     1
281
     1
  3
ACAD_SORTENTS
360
41D
  0
DICTIONARY
  5
58D
330
587
100
AcDbDictionary
280
     1
281
     1
  3
ACAD_SORTENTS
360
58E
  0
DICTIONARY
  5
847
330
845
100
AcDbDictionary
280
     1
281
     1
  3
ACAD_SORTENTS
360
848
  0
DICTIONARY
  5
3D1
102
{ACAD_REACTORS
330
33E
102
}
330
33E
100
AcDbDictionary
281
     1
  0
DICTIONARY
  5
33F
102
{ACAD_REACTORS
330
33E
102
}
330
33E
100
AcDbDictionary
281
     1
  0
DICTIONARY
  5
347
102
{ACAD_REACTORS
330
33E
102
}
330
33E
100
AcDbDictionary
281
     1
  3
Layout1
350
34A
  3
Model
350
349
  0
DICTIONARY
  5
3D0
102
{ACAD_REACTORS
330
33E
102
}
330
33E
100
AcDbDictionary
281
     1
  3
ByBlock
350
CAF
  3
ByLayer
350
CA7
  3
Global
350
CB7
  0
DICTIONARY
  5
CF2
102
{ACAD_REACTORS
330
33E
102
}
330
33E
100
AcDbDictionary
281
     1
  3
Standard
350
CF3
  0
DICTIONARY
  5
340
102
{ACAD_REACTORS
330
33E
102
}
330
33E
100
AcDbDictionary
281
     1
  3
STANDARD
350
341
  0
DICTIONARY
  5
348
102
{ACAD_REACTORS
330
33E
102
}
330
33E
100
AcDbDictionary
281
     1
  0
ACDBDICTIONARYWDFLT
  5
345
102
{ACAD_REACTORS
330
33E
102
}
330
33E
100
AcDbDictionary
281
     1
  3
Normal
350
346
100
AcDbDictionaryWithDefault
340
346
  0
DICTIONARY
  5
CD0
102
{ACAD_REACTORS
330
33E
102
}
330
33E
100
AcDbDictionary
281
     1
  3
A0
350
CD1
  3
A1
350
CD2
  3
A2
350
CD3
  3
A3
350
CD4
  3
A4
350
CD5
  3
A5
350
CD6
  3
A6
350
CD7
  3
A7
350
CD8
  3
A8
350
CD9
  3
A9
350
CDA
  3
B0
350
CDB
  3
B1
350
CDC
  3
B2
350
CDD
  3
B3
350
CDE
  3
B4
350
CDF
  3
B5
350
CE0
  3
B6
350
CE1
  3
B7
350
CE2
  3
B8
350
CE3
  3
B9
350
CE4
  3
C0
350
CE5
  3
C1
350
CE6
  3
C2
350
CE7
  3
C3
350
CE8
  3
C4
350
CE9
  3
C5
350
CEA
  3
C6
350
CEB
  3
C7
350
CEC
  3
C8
350
CED
  3
C9
350
CEE
  3
D0
350
CEF
  3
D1
350
CF0
  3
D2
350
CF1
  0
DICTIONARY
  5
3D2
102
{ACAD_REACTORS
330
33E
102
}
330
33E
100
AcDbDictionary
281
     1
  3
Standard
350
3D3
  0
DICTIONARY
  5
CBF
102
{ACAD_REACTORS
330
33E
102
}
330
33E
100
AcDbDictionary
281
     1
  3
2dWireframe
350
CC5
  3
3D Hidden
350
CC7
  3
3dWireframe
350
CC6
  3
Basic
350
CC4
  3
Brighten
350
CCB
  3
ColorChange
350
CCF
  3
Conceptual
350
CC8
  3
Dim
350
CCA
  3
Facepattern
350
CCE
  3
Flat
350
CC0
  3
FlatWithEdges
350
CC1
  3
Gouraud
350
CC2
  3
GouraudWithEdges
350
CC3
  3
Linepattern
350
CCD
  3
Realistic
350
CC9
  3
Thicken
350
CCC
  0
XRECORD
  5
D6F
102
{ACAD_REACTORS
330
33E
102
}
330
33E
100
AcDbXrecord
280
     1
 90
        1
330
3D3
  0
DICTIONARY
  5
3C4
102
{ACAD_REACTORS
330
33E
102
}
330
33E
100
AcDbDictionary
281
     1
  3
CANNOSCALE
350
D72
  3
CMLEADERSTYLE
350
D70
  3
CTABLESTYLE
350
3D7
  3
DIMASSOC
350
3C5
  3
LIGHTINGUNITS
350
D73
  3
MSLTSCALE
350
D71
  0
DICTIONARY
  5
2141
102
{ACAD_REACTORS
330
33E
102
}
330
33E
100
AcDbDictionary
281
     1
  3
ASEBlockHierarchyIndexRecord
350
2142
1001
DCO15
1040
1725191964.421
  0
DICTIONARY
  5
220A
102
{ACAD_REACTORS
330
569
102
}
330
569
100
AcDbDictionary
281
     1
  0
DICTIONARY
  5
844
102
{ACAD_REACTORS
330
569
102
}
330
569
100
AcDbDictionary
281
     1
  0
DICTIONARY
  5
2209
102
{ACAD_REACTORS
330
569
102
}
330
569
100
AcDbDictionary
281
     1
1001
ACAD
1000
<All
  0
XRECORD
  5
D56
102
{ACAD_REACTORS
330
D55
102
}
330
D55
100
AcDbXrecord
280
     1
290
     1
  0
XRECORD
  5
D58
102
{ACAD_REACTORS
330
D57
102
}
330
D57
100
AcDbXrecord
280
     1
290
     1
  0
XRECORD
  5
D5A
102
{ACAD_REACTORS
330
D59
102
}
330
D59
100
AcDbXrecord
280
     1
290
     1
  0
XRECORD
  5
D5C
102
{ACAD_REACTORS
330
D5B
102
}
330
D5B
100
AcDbXrecord
280
     1
290
     1
  0
XRECORD
  5
D5E
102
{ACAD_REACTORS
330
D5D
102
}
330
D5D
100
AcDbXrecord
280
     1
290
     1
  0
XRECORD
  5
D60
102
{ACAD_REACTORS
330
D5F
102
}
330
D5F
100
AcDbXrecord
280
     1
290
     1
  0
XRECORD
  5
D62
102
{ACAD_REACTORS
330
D61
102
}
330
D61
100
AcDbXrecord
280
     1
290
     1
  0
XRECORD
  5
D64
102
{ACAD_REACTORS
330
D63
102
}
330
D63
100
AcDbXrecord
280
     1
290
     1
  0
XRECORD
  5
D66
102
{ACAD_REACTORS
330
D65
102
}
330
D65
100
AcDbXrecord
280
     1
290
     1
  0
XRECORD
  5
D68
102
{ACAD_REACTORS
330
D67
102
}
330
D67
100
AcDbXrecord
280
     1
290
     1
  0
XRECORD
  5
D6A
102
{ACAD_REACTORS
330
D69
102
}
330
D69
100
AcDbXrecord
280
     1
290
     1
  0
XRECORD
  5
D6C
102
{ACAD_REACTORS
330
D6B
102
}
330
D6B
100
AcDbXrecord
280
     1
290
     1
  0
SORTENTSTABLE
  5
41D
102
{ACAD_REACTORS
330
41C
102
}
330
41C
100
AcDbSortentsTable
330
1F
331
1D09
  5
1582
331
1CEB
  5
1564
331
1D36
  5
15AF
331
8B3
  5
8AC
331
1D02
  5
157B
331
1D2F
  5
15A8
331
1D43
  5
15BC
331
1CFD
  5
1576
331
1CF6
  5
156F
331
1D28
  5
15A1
331
1D14
  5
158D
331
1CEF
  5
1568
331
1D0D
  5
1586
331
873
  5
8B1
331
1D3A
  5
15B3
331
1D21
  5
159A
331
1D06
  5
157F
331
1D47
  5
15C0
331
1D33
  5
15AC
331
1D1F
  5
1598
331
1D40
  5
15B9
331
1CFA
  5
1573
331
1D2C
  5
15A5
331
1D18
  5
1591
331
1CF3
  5
156C
331
1D25
  5
159E
331
1D11
  5
158A
331
1D3E
  5
15B7
331
1CEC
  5
1565
331
8B4
  5
8AD
331
1D0A
  5
1583
331
1D37
  5
15B0
331
1D03
  5
157C
331
1D44
  5
15BD
331
1CFE
  5
1577
331
1D30
  5
15A9
331
1D1C
  5
1595
331
1CF7
  5
1570
331
1CE3
  5
155C
331
1D15
  5
158E
331
1D29
  5
15A2
331
1CF0
  5
1569
331
1D3B
  5
15B4
331
1D0E
  5
1587
331
1D22
  5
159B
331
1CE9
  5
1562
331
1D34
  5
15AD
331
1D07
  5
1580
331
1D00
  5
1579
331
1CFB
  5
1574
331
1D19
  5
1592
331
1D2D
  5
15A6
331
1D41
  5
15BA
331
1CF4
  5
156D
331
1D12
  5
158B
331
1D3F
  5
15B8
331
1D26
  5
159F
331
1CED
  5
1566
331
8B5
  5
8AE
331
1D38
  5
15B1
331
1D0B
  5
1584
331
1D04
  5
157D
331
1CFF
  5
1578
331
1D31
  5
15AA
331
1D1D
  5
1596
331
1D45
  5
15BE
331
1CF8
  5
1571
331
1D16
  5
158F
331
1D2A
  5
15A3
331
1CF1
  5
156A
331
1D3C
  5
15B5
331
1D0F
  5
1588
331
1D23
  5
159C
331
1D35
  5
15AE
331
1D08
  5
1581
331
1CEA
  5
1563
331
1D01
  5
157A
331
1D2E
  5
15A7
331
1D42
  5
15BB
331
1D1A
  5
1593
331
1CFC
  5
1575
331
1D27
  5
15A0
331
1D13
  5
158C
331
1CF5
  5
156E
331
1D20
  5
1599
331
1D39
  5
15B2
331
1D0C
  5
1585
331
1CEE
  5
1567
331
1D05
  5
157E
331
1D32
  5
15AB
331
1D1E
  5
1597
331
1D46
  5
15BF
331
1D2B
  5
15A4
331
1D17
  5
1590
331
1CF9
  5
1572
331
878
  5
CF8
331
1D24
  5
159D
331
1D3D
  5
15B6
331
1D10
  5
1589
331
1CF2
  5
156B
  0
SORTENTSTABLE
  5
58E
102
{ACAD_REACTORS
330
58D
102
}
330
58D
100
AcDbSortentsTable
330
587
  0
SORTENTSTABLE
  5
848
102
{ACAD_REACTORS
330
847
102
}
330
847
100
AcDbSortentsTable
330
845
  0
LAYOUT
  5
34A
102
{ACAD_REACTORS
330
347
102
}
330
347
100
AcDbPlotSettings
  1

  2
HP DesignJet 600 (C2847A)
  4

  6

 40
0.0
 41
0.0
 42
0.0
 43
0.0
 44
0.0
 45
0.0
 46
0.0
 47
0.0
 48
0.0
 49
0.0
140
0.0
141
0.0
142
1.0
143
1.0
 70
   688
 72
     0
 73
     0
 74
     5
  7
acad.ctb
 75
    16
147
1.0
 76
     0
 77
     2
 78
   300
148
0.0
149
0.0
100
AcDbLayout
  1
Layout1
 70
     1
 71
     1
 10
0.0
 20
0.0
 11
12.0
 21
9.0
 12
0.0
 22
0.0
 32
0.0
 14
1.000000000000000E+20
 24
1.000000000000000E+20
 34
1.000000000000000E+20
 15
-1.000000000000000E+20
 25
-1.000000000000000E+20
 35
-1.000000000000000E+20
146
0.0
 13
0.0
 23
0.0
 33
0.0
 16
1.0
 26
0.0
 36
0.0
 17
0.0
 27
1.0
 37
0.0
 76
     0
330
1B
  0
LAYOUT
  5
349
102
{ACAD_REACTORS
330
347
102
}
330
347
100
AcDbPlotSettings
  1

  2
Acrobat Distiller.pc3
  4
A4
  6

 40
3.174999952316284
 41
3.174999952316284
 42
3.17498779296875
 43
3.175003051757812
 44
297.0318298339844
 45
209.9098358154297
 46
-18.34845038214081
 47
-16.25350813830374
 48
-51.13840566360545
 49
-18.949100937671
140
206.0931369970131
141
151.050899062329
142
1.0
143
1.0
 70
 11908
 72
     1
 73
     0
 74
     1
  7
acad.ctb
 75
     0
147
0.6771861859119757
 76
     0
 77
     2
 78
   300
148
71.09059307930568
149
71.45318241500956
100
AcDbLayout
  1
Model
 70
     1
 71
     0
 10
0.0
 20
0.0
 11
12.0
 21
9.0
 12
0.0
 22
0.0
 32
0.0
 14
0.0
 24
0.0
 34
0.0
 15
0.0
 25
0.0
 35
0.0
146
0.0
 13
0.0
 23
0.0
 33
0.0
 16
1.0
 26
0.0
 36
0.0
 17
0.0
 27
1.0
 37
0.0
 76
     0
330
1F
331
CA5
1001
ACAD_PSEXT
1000
Acrobat Distiller.pc3
1000
AdobePS Acrobat Distiller
1000
C:\Documents and Settings\All Users\Desktop\*.pdf
1000

1070
     0
  0
MATERIAL
  5
CAF
102
{ACAD_XDICTIONARY
360
CB0
102
}
102
{ACAD_REACTORS
330
3D0
102
}
330
3D0
100
AcDbMaterial
  1
ByBlock
 72
     0
 43
0.0208333333333333
 43
0.0
 43
0.0
 43
0.0
 43
0.0
 43
0.0208333333333333
 43
0.0
 43
0.0
 43
0.0
 43
0.0
 43
1.0
 43
0.0
 43
0.0
 43
0.0
 43
0.0
 43
1.0
 77
     0
 47
0.0208333333333333
 47
0.0
 47
0.0
 47
0.0
 47
0.0
 47
0.0208333333333333
 47
0.0
 47
0.0
 47
0.0
 47
0.0
 47
1.0
 47
0.0
 47
0.0
 47
0.0
 47
0.0
 47
1.0
171
     0
 49
0.0208333333333333
 49
0.0
 49
0.0
 49
0.0
 49
0.0
 49
0.0208333333333333
 49
0.0
 49
0.0
 49
0.0
 49
0.0
 49
1.0
 49
0.0
 49
0.0
 49
0.0
 49
0.0
 49
1.0
175
     0
142
0.0208333333333333
142
0.0
142
0.0
142
0.0
142
0.0
142
0.0208333333333333
142
0.0
142
0.0
142
0.0
142
0.0
142
1.0
142
0.0
142
0.0
142
0.0
142
0.0
142
1.0
179
     0
144
0.0208333333333333
144
0.0
144
0.0
144
0.0
144
0.0
144
0.0208333333333333
144
0.0
144
0.0
144
0.0
144
0.0
144
1.0
144
0.0
144
0.0
144
0.0
144
0.0
144
1.0
147
0.0208333333333333
147
0.0
147
0.0
147
0.0
147
0.0
147
0.0208333333333333
147
0.0
147
0.0
147
0.0
147
0.0
147
1.0
147
0.0
147
0.0
147
0.0
147
0.0
147
1.0
  0
MATERIAL
  5
CA7
102
{ACAD_XDICTIONARY
360
CA8
102
}
102
{ACAD_REACTORS
330
3D0
102
}
330
3D0
100
AcDbMaterial
  1
ByLayer
 72
     0
 43
0.0208333333333333
 43
0.0
 43
0.0
 43
0.0
 43
0.0
 43
0.0208333333333333
 43
0.0
 43
0.0
 43
0.0
 43
0.0
 43
1.0
 43
0.0
 43
0.0
 43
0.0
 43
0.0
 43
1.0
 77
     0
 47
0.0208333333333333
 47
0.0
 47
0.0
 47
0.0
 47
0.0
 47
0.0208333333333333
 47
0.0
 47
0.0
 47
0.0
 47
0.0
 47
1.0
 47
0.0
 47
0.0
 47
0.0
 47
0.0
 47
1.0
171
     0
 49
0.0208333333333333
 49
0.0
 49
0.0
 49
0.0
 49
0.0
 49
0.0208333333333333
 49
0.0
 49
0.0
 49
0.0
 49
0.0
 49
1.0
 49
0.0
 49
0.0
 49
0.0
 49
0.0
 49
1.0
175
     0
142
0.0208333333333333
142
0.0
142
0.0
142
0.0
142
0.0
142
0.0208333333333333
142
0.0
142
0.0
142
0.0
142
0.0
142
1.0
142
0.0
142
0.0
142
0.0
142
0.0
142
1.0
179
     0
144
0.0208333333333333
144
0.0
144
0.0
144
0.0
144
0.0
144
0.0208333333333333
144
0.0
144
0.0
144
0.0
144
0.0
144
1.0
144
0.0
144
0.0
144
0.0
144
0.0
144
1.0
147
0.0208333333333333
147
0.0
147
0.0
147
0.0
147
0.0
147
0.0208333333333333
147
0.0
147
0.0
147
0.0
147
0.0
147
1.0
147
0.0
147
0.0
147
0.0
147
0.0
147
1.0
  0
MATERIAL
  5
CB7
102
{ACAD_XDICTIONARY
360
CB8
102
}
102
{ACAD_REACTORS
330
3D0
102
}
330
3D0
100
AcDbMaterial
  1
Global
 72
     0
 43
0.0208333333333333
 43
0.0
 43
0.0
 43
0.0
 43
0.0
 43
0.0208333333333333
 43
0.0
 43
0.0
 43
0.0
 43
0.0
 43
1.0
 43
0.0
 43
0.0
 43
0.0
 43
0.0
 43
1.0
 77
     0
 47
0.0208333333333333
 47
0.0
 47
0.0
 47
0.0
 47
0.0
 47
0.0208333333333333
 47
0.0
 47
0.0
 47
0.0
 47
0.0
 47
1.0
 47
0.0
 47
0.0
 47
0.0
 47
0.0
 47
1.0
171
     0
 49
0.0208333333333333
 49
0.0
 49
0.0
 49
0.0
 49
0.0
 49
0.0208333333333333
 49
0.0
 49
0.0
 49
0.0
 49
0.0
 49
1.0
 49
0.0
 49
0.0
 49
0.0
 49
0.0
 49
1.0
175
     0
142
0.0208333333333333
142
0.0
142
0.0
142
0.0
142
0.0
142
0.0208333333333333
142
0.0
142
0.0
142
0.0
142
0.0
142
1.0
142
0.0
142
0.0
142
0.0
142
0.0
142
1.0
179
     0
144
0.0208333333333333
144
0.0
144
0.0
144
0.0
144
0.0
144
0.0208333333333333
144
0.0
144
0.0
144
0.0
144
0.0
144
1.0
144
0.0
144
0.0
144
0.0
144
0.0
144
1.0
147
0.0208333333333333
147
0.0
147
0.0
147
0.0
147
0.0
147
0.0208333333333333
147
0.0
147
0.0
147
0.0
147
0.0
147
1.0
147
0.0
147
0.0
147
0.0
147
0.0
147
1.0
  0
MLEADERSTYLE
  5
CF3
102
{ACAD_REACTORS
330
CF2
102
}
330
CF2
100
AcDbMLeaderStyle
170
     2
171
     1
172
     0
 90
        2
 40
0.0
 41
0.0
173
     1
 91
-1056964608
340
14
 92
       -2
290
     1
 42
2.0
291
     1
 43
0.36
  3
Standard
 44
4.0
300

342
11
174
     1
178
     6
175
     1
176
     0
 93
-1056964608
 45
4.0
292
     0
297
     0
 46
4.0
 94
-1056964608
 47
1.0
 49
1.0
140
1.0
293
     1
141
0.0
294
     1
177
     0
142
1.0
295
     1
296
     0
143
0.125
1001
ACAD_MLEADERVER
1070
     2
  0
MLINESTYLE
  5
341
102
{ACAD_REACTORS
330
340
102
}
330
340
100
AcDbMlineStyle
  2
STANDARD
 70
     0
  3

 62
   256
 51
90.0
 52
90.0
 71
     2
 49
0.5
 62
   256
  6
BYLAYER
 49
-0.5
 62
   256
  6
BYLAYER
  0
ACDBPLACEHOLDER
  5
346
102
{ACAD_REACTORS
330
345
102
}
330
345
  0
SCALE
  5
CD1
102
{ACAD_REACTORS
330
CD0
102
}
330
CD0
100
AcDbScale
 70
     0
300
1:1
140
1.0
141
1.0
290
     1
  0
SCALE
  5
CD2
102
{ACAD_REACTORS
330
CD0
102
}
330
CD0
100
AcDbScale
 70
     0
300
1:2
140
1.0
141
2.0
290
     0
  0
SCALE
  5
CD3
102
{ACAD_REACTORS
330
CD0
102
}
330
CD0
100
AcDbScale
 70
     0
300
1:4
140
1.0
141
4.0
290
     0
  0
SCALE
  5
CD4
102
{ACAD_REACTORS
330
CD0
102
}
330
CD0
100
AcDbScale
 70
     0
300
1:5
140
1.0
141
5.0
290
     0
  0
SCALE
  5
CD5
102
{ACAD_REACTORS
330
CD0
102
}
330
CD0
100
AcDbScale
 70
     0
300
1:8
140
1.0
141
8.0
290
     0
  0
SCALE
  5
CD6
102
{ACAD_REACTORS
330
CD0
102
}
330
CD0
100
AcDbScale
 70
     0
300
1:10
140
1.0
141
10.0
290
     0
  0
SCALE
  5
CD7
102
{ACAD_REACTORS
330
CD0
102
}
330
CD0
100
AcDbScale
 70
     0
300
1:16
140
1.0
141
16.0
290
     0
  0
SCALE
  5
CD8
102
{ACAD_REACTORS
330
CD0
102
}
330
CD0
100
AcDbScale
 70
     0
300
1:20
140
1.0
141
20.0
290
     0
  0
SCALE
  5
CD9
102
{ACAD_REACTORS
330
CD0
102
}
330
CD0
100
AcDbScale
 70
     0
300
1:30
140
1.0
141
30.0
290
     0
  0
SCALE
  5
CDA
102
{ACAD_REACTORS
330
CD0
102
}
330
CD0
100
AcDbScale
 70
     0
300
1:40
140
1.0
141
40.0
290
     0
  0
SCALE
  5
CDB
102
{ACAD_REACTORS
330
CD0
102
}
330
CD0
100
AcDbScale
 70
     0
300
1:50
140
1.0
141
50.0
290
     0
  0
SCALE
  5
CDC
102
{ACAD_REACTORS
330
CD0
102
}
330
CD0
100
AcDbScale
 70
     0
300
1:100
140
1.0
141
100.0
290
     0
  0
SCALE
  5
CDD
102
{ACAD_REACTORS
330
CD0
102
}
330
CD0
100
AcDbScale
 70
     0
300
2:1
140
2.0
141
1.0
290
     0
  0
SCALE
  5
CDE
102
{ACAD_REACTORS
330
CD0
102
}
330
CD0
100
AcDbScale
 70
     0
300
4:1
140
4.0
141
1.0
290
     0
  0
SCALE
  5
CDF
102
{ACAD_REACTORS
330
CD0
102
}
330
CD0
100
AcDbScale
 70
     0
300
8:1
140
8.0
141
1.0
290
     0
  0
SCALE
  5
CE0
102
{ACAD_REACTORS
330
CD0
102
}
330
CD0
100
AcDbScale
 70
     0
300
10:1
140
10.0
141
1.0
290
     0
  0
SCALE
  5
CE1
102
{ACAD_REACTORS
330
CD0
102
}
330
CD0
100
AcDbScale
 70
     0
300
100:1
140
100.0
141
1.0
290
     0
  0
SCALE
  5
CE2
102
{ACAD_REACTORS
330
CD0
102
}
330
CD0
100
AcDbScale
 70
     0
300
1/128" = 1'-0"
140
0.0078125
141
12.0
290
     0
  0
SCALE
  5
CE3
102
{ACAD_REACTORS
330
CD0
102
}
330
CD0
100
AcDbScale
 70
     0
300
1/64" = 1'-0"
140
0.015625
141
12.0
290
     0
  0
SCALE
  5
CE4
102
{ACAD_REACTORS
330
CD0
102
}
330
CD0
100
AcDbScale
 70
     0
300
1/32" = 1'-0"
140
0.03125
141
12.0
290
     0
  0
SCALE
  5
CE5
102
{ACAD_REACTORS
330
CD0
102
}
330
CD0
100
AcDbScale
 70
     0
300
1/16" = 1'-0"
140
0.0625
141
12.0
290
     0
  0
SCALE
  5
CE6
102
{ACAD_REACTORS
330
CD0
102
}
330
CD0
100
AcDbScale
 70
     0
300
3/32" = 1'-0"
140
0.09375
141
12.0
290
     0
  0
SCALE
  5
CE7
102
{ACAD_REACTORS
330
CD0
102
}
330
CD0
100
AcDbScale
 70
     0
300
1/8" = 1'-0"
140
0.125
141
12.0
290
     0
  0
SCALE
  5
CE8
102
{ACAD_REACTORS
330
CD0
102
}
330
CD0
100
AcDbScale
 70
     0
300
3/16" = 1'-0"
140
0.1875
141
12.0
290
     0
  0
SCALE
  5
CE9
102
{ACAD_REACTORS
330
CD0
102
}
330
CD0
100
AcDbScale
 70
     0
300
1/4" = 1'-0"
140
0.25
141
12.0
290
     0
  0
SCALE
  5
CEA
102
{ACAD_REACTORS
330
CD0
102
}
330
CD0
100
AcDbScale
 70
     0
300
3/8" = 1'-0"
140
0.375
141
12.0
290
     0
  0
SCALE
  5
CEB
102
{ACAD_REACTORS
330
CD0
102
}
330
CD0
100
AcDbScale
 70
     0
300
1/2" = 1'-0"
140
0.5
141
12.0
290
     0
  0
SCALE
  5
CEC
102
{ACAD_REACTORS
330
CD0
102
}
330
CD0
100
AcDbScale
 70
     0
300
3/4" = 1'-0"
140
0.75
141
12.0
290
     0
  0
SCALE
  5
CED
102
{ACAD_REACTORS
330
CD0
102
}
330
CD0
100
AcDbScale
 70
     0
300
1" = 1'-0"
140
1.0
141
12.0
290
     0
  0
SCALE
  5
CEE
102
{ACAD_REACTORS
330
CD0
102
}
330
CD0
100
AcDbScale
 70
     0
300
1-1/2" = 1'-0"
140
1.5
141
12.0
290
     0
  0
SCALE
  5
CEF
102
{ACAD_REACTORS
330
CD0
102
}
330
CD0
100
AcDbScale
 70
     0
300
3" = 1'-0"
140
3.0
141
12.0
290
     0
  0
SCALE
  5
CF0
102
{ACAD_REACTORS
330
CD0
102
}
330
CD0
100
AcDbScale
 70
     0
300
6" = 1'-0"
140
6.0
141
12.0
290
     0
  0
SCALE
  5
CF1
102
{ACAD_REACTORS
330
CD0
102
}
330
CD0
100
AcDbScale
 70
     0
300
1'-0" = 1'-0"
140
12.0
141
12.0
290
     0
  0
TABLESTYLE
  5
3D3
102
{ACAD_XDICTIONARY
360
D6D
102
}
102
{ACAD_REACTORS
330
3D2
102
}
330
3D2
100
AcDbTableStyle
  3
Standard
 70
     0
 71
     0
 40
1.5
 41
1.5
280
     0
281
     0
  7
STANDARD
140
4.5
170
     2
 62
     0
 63
     7
283
     0
 90
        4
 91
        0
  1

274
    -2
284
     1
 64
     0
275
    -2
285
     1
 65
     0
276
    -2
286
     1
 66
     0
277
    -2
287
     1
 67
     0
278
    -2
288
     1
 68
     0
279
    -2
289
     1
 69
     0
  7
STANDARD
140
6.0
170
     5
 62
     0
 63
     7
283
     0
 90
        4
 91
        0
  1

274
    -2
284
     1
 64
     0
275
    -2
285
     1
 65
     0
276
    -2
286
     1
 66
     0
277
    -2
287
     1
 67
     0
278
    -2
288
     1
 68
     0
279
    -2
289
     1
 69
     0
  7
STANDARD
140
4.5
170
     5
 62
     0
 63
     7
283
     0
 90
        4
 91
        0
  1

274
    -2
284
     1
 64
     0
275
    -2
285
     1
 65
     0
276
    -2
286
     1
 66
     0
277
    -2
287
     1
 67
     0
278
    -2
288
     1
 68
     0
279
    -2
289
     1
 69
     0
  0
VISUALSTYLE
  5
CC5
102
{ACAD_REACTORS
330
CBF
102
}
330
CBF
100
AcDbVisualStyle
  2
2dWireframe
 70
     4
 71
     0
 72
     2
 73
     0
 90
        0
 40
-0.6
 41
-30.0
 62
     5
 63
     7
421
 16777215
 74
     1
 91
        4
 64
     7
 65
   257
 75
     1
175
     1
 42
1.0
 92
        0
 66
   257
 43
1.0
 76
     1
 77
     6
 78
     2
 67
     7
 79
     5
170
     0
171
     0
290
     0
174
     0
 93
        1
 44
0.0
173
     0
291
     0
 45
0.0
  0
VISUALSTYLE
  5
CC7
102
{ACAD_REACTORS
330
CBF
102
}
330
CBF
100
AcDbVisualStyle
  2
3D Hidden
 70
     6
 71
     1
 72
     2
 73
     2
 90
        0
 40
-0.6
 41
-30.0
 62
     5
 63
     7
421
 16777215
 74
     2
 91
        2
 64
     7
 65
   257
 75
     2
175
     1
 42
40.0
 92
        0
 66
   257
 43
1.0
 76
     1
 77
     6
 78
     2
 67
     7
 79
     3
170
     0
171
     0
290
     0
174
     0
 93
        1
 44
0.0
173
     0
291
     0
 45
0.0
  0
VISUALSTYLE
  5
CC6
102
{ACAD_REACTORS
330
CBF
102
}
330
CBF
100
AcDbVisualStyle
  2
3dWireframe
 70
     5
 71
     0
 72
     2
 73
     0
 90
        0
 40
-0.6
 41
-30.0
 62
     5
 63
     7
421
 16777215
 74
     1
 91
        4
 64
     7
 65
   257
 75
     1
175
     1
 42
1.0
 92
        0
 66
   257
 43
1.0
 76
     1
 77
     6
 78
     2
 67
     7
 79
     5
170
     0
171
     0
290
     0
174
     0
 93
        1
 44
0.0
173
     0
291
     0
 45
0.0
  0
VISUALSTYLE
  5
CC4
102
{ACAD_REACTORS
330
CBF
102
}
330
CBF
100
AcDbVisualStyle
  2
Basic
 70
     7
 71
     1
 72
     0
 73
     1
 90
        0
 40
-0.6
 41
-30.0
 62
     5
 63
     7
421
 16777215
 74
     0
 91
        4
 64
     7
 65
   257
 75
     1
175
     1
 42
1.0
 92
        8
 66
     7
 43
1.0
 76
     1
 77
     6
 78
     2
 67
     7
 79
     5
170
     0
171
     0
290
     0
174
     0
 93
        1
 44
0.0
173
     0
291
     1
 45
0.0
  0
VISUALSTYLE
  5
CCB
102
{ACAD_REACTORS
330
CBF
102
}
330
CBF
100
AcDbVisualStyle
  2
Brighten
 70
    12
 71
     2
 72
     2
 73
     0
 90
        0
 40
-0.6
 41
-30.0
 62
     5
 63
     7
421
 16777215
 74
     1
 91
        4
 64
     7
 65
   257
 75
     1
175
     1
 42
1.0
 92
        8
 66
     7
 43
1.0
 76
     1
 77
     6
 78
     2
 67
     7
 79
     5
170
     0
171
     0
290
     0
174
     0
 93
        1
 44
50.0
173
     0
291
     1
 45
0.0
  0
VISUALSTYLE
  5
CCF
102
{ACAD_REACTORS
330
CBF
102
}
330
CBF
100
AcDbVisualStyle
  2
ColorChange
 70
    16
 71
     2
 72
     2
 73
     3
 90
        0
 40
-0.6
 41
-30.0
 62
     5
 63
     8
421
  8421504
 74
     1
 91
        4
 64
     7
 65
   257
 75
     1
175
     1
 42
1.0
 92
        8
 66
     8
424
  8421504
 43
1.0
 76
     1
 77
     6
 78
     2
 67
     7
 79
     5
170
     0
171
     0
290
     0
174
     0
 93
        1
 44
0.0
173
     0
291
     1
 45
0.0
  0
VISUALSTYLE
  5
CC8
102
{ACAD_REACTORS
330
CBF
102
}
330
CBF
100
AcDbVisualStyle
  2
Conceptual
 70
     9
 71
     3
 72
     2
 73
     0
 90
        0
 40
-0.6
 41
-30.0
 62
     5
 63
     7
421
 16777215
 74
     2
 91
        2
 64
     7
 65
   257
 75
     1
175
     1
 42
40.0
 92
        8
 66
     7
 43
1.0
 76
     1
 77
     6
 78
     2
 67
     7
 79
     3
170
     0
171
     0
290
     0
174
     0
 93
        1
 44
0.0
173
     0
291
     0
 45
0.0
  0
VISUALSTYLE
  5
CCA
102
{ACAD_REACTORS
330
CBF
102
}
330
CBF
100
AcDbVisualStyle
  2
Dim
 70
    11
 71
     2
 72
     2
 73
     0
 90
        0
 40
-0.6
 41
-30.0
 62
     5
 63
     7
421
 16777215
 74
     1
 91
        4
 64
     7
 65
   257
 75
     1
175
     1
 42
1.0
 92
        8
 66
     7
 43
1.0
 76
     1
 77
     6
 78
     2
 67
     7
 79
     5
170
     0
171
     0
290
     0
174
     0
 93
        1
 44
-50.0
173
     0
291
     1
 45
0.0
  0
VISUALSTYLE
  5
CCE
102
{ACAD_REACTORS
330
CBF
102
}
330
CBF
100
AcDbVisualStyle
  2
Facepattern
 70
    15
 71
     2
 72
     2
 73
     0
 90
        0
 40
-0.6
 41
-30.0
 62
     5
 63
     7
421
 16777215
 74
     1
 91
        4
 64
     7
 65
   257
 75
     1
175
     1
 42
1.0
 92
        8
 66
     7
 43
1.0
 76
     1
 77
     6
 78
     2
 67
     7
 79
     5
170
     0
171
     0
290
     0
174
     0
 93
        1
 44
0.0
173
     0
291
     1
 45
0.0
  0
VISUALSTYLE
  5
CC0
102
{ACAD_REACTORS
330
CBF
102
}
330
CBF
100
AcDbVisualStyle
  2
Flat
 70
     0
 71
     2
 72
     1
 73
     1
 90
        2
 40
-0.6
 41
30.0
 62
     5
 63
     7
421
 16777215
 74
     0
 91
        4
 64
     7
 65
   257
 75
     1
175
     1
 42
1.0
 92
        8
 66
     7
 43
1.0
 76
     1
 77
     6
 78
     2
 67
     7
 79
     5
170
     0
171
     0
290
     0
174
     0
 93
       13
 44
0.0
173
     0
291
     1
 45
0.0
  0
VISUALSTYLE
  5
CC1
102
{ACAD_REACTORS
330
CBF
102
}
330
CBF
100
AcDbVisualStyle
  2
FlatWithEdges
 70
     1
 71
     2
 72
     1
 73
     1
 90
        2
 40
-0.6
 41
30.0
 62
     5
 63
     7
421
 16777215
 74
     1
 91
        4
 64
     7
 65
   257
 75
     1
175
     1
 42
1.0
 92
        0
 66
   257
 43
1.0
 76
     1
 77
     6
 78
     2
 67
     7
 79
     5
170
     0
171
     0
290
     0
174
     0
 93
       13
 44
0.0
173
     0
291
     1
 45
0.0
  0
VISUALSTYLE
  5
CC2
102
{ACAD_REACTORS
330
CBF
102
}
330
CBF
100
AcDbVisualStyle
  2
Gouraud
 70
     2
 71
     2
 72
     2
 73
     1
 90
        2
 40
-0.6
 41
30.0
 62
     5
 63
     7
421
 16777215
 74
     0
 91
        4
 64
     7
 65
   257
 75
     1
175
     1
 42
1.0
 92
        0
 66
     7
 43
1.0
 76
     1
 77
     6
 78
     2
 67
     7
 79
     5
170
     0
171
     0
290
     0
174
     0
 93
       13
 44
0.0
173
     0
291
     1
 45
0.0
  0
VISUALSTYLE
  5
CC3
102
{ACAD_REACTORS
330
CBF
102
}
330
CBF
100
AcDbVisualStyle
  2
GouraudWithEdges
 70
     3
 71
     2
 72
     2
 73
     1
 90
        2
 40
-0.6
 41
30.0
 62
     5
 63
     7
421
 16777215
 74
     1
 91
        4
 64
     7
 65
   257
 75
     1
175
     1
 42
1.0
 92
        0
 66
   257
 43
1.0
 76
     1
 77
     6
 78
     2
 67
     7
 79
     5
170
     0
171
     0
290
     0
174
     0
 93
       13
 44
0.0
173
     0
291
     1
 45
0.0
  0
VISUALSTYLE
  5
CCD
102
{ACAD_REACTORS
330
CBF
102
}
330
CBF
100
AcDbVisualStyle
  2
Linepattern
 70
    14
 71
     2
 72
     2
 73
     0
 90
        0
 40
-0.6
 41
-30.0
 62
     5
 63
     7
421
 16777215
 74
     1
 91
        4
 64
     7
 65
   257
 75
     7
175
     7
 42
1.0
 92
        8
 66
     7
 43
1.0
 76
     1
 77
     6
 78
     2
 67
     7
 79
     5
170
     0
171
     0
290
     0
174
     0
 93
        1
 44
0.0
173
     0
291
     1
 45
0.0
  0
VISUALSTYLE
  5
CC9
102
{ACAD_REACTORS
330
CBF
102
}
330
CBF
100
AcDbVisualStyle
  2
Realistic
 70
     8
 71
     2
 72
     2
 73
     0
 90
        0
 40
-0.6
 41
-30.0
 62
     5
 63
     7
421
 16777215
 74
     1
 91
        0
 64
     7
 65
   257
 75
     1
175
     1
 42
1.0
 92
        8
 66
     8
424
  7895160
 43
1.0
 76
     1
 77
     6
 78
     2
 67
     7
 79
     5
170
     0
171
     0
290
     0
174
     0
 93
       13
 44
0.0
173
     0
291
     0
 45
0.0
  0
VISUALSTYLE
  5
CCC
102
{ACAD_REACTORS
330
CBF
102
}
330
CBF
100
AcDbVisualStyle
  2
Thicken
 70
    13
 71
     2
 72
     2
 73
     0
 90
        0
 40
-0.6
 41
-30.0
 62
     5
 63
     7
421
 16777215
 74
     1
 91
        4
 64
     7
 65
   257
 75
     1
175
     1
 42
1.0
 92
       12
 66
     7
 43
1.0
 76
     1
 77
     6
 78
     2
 67
     7
 79
     5
170
     0
171
     0
290
     0
174
     0
 93
        1
 44
0.0
173
     0
291
     1
 45
0.0
  0
DICTIONARYVAR
  5
D72
102
{ACAD_REACTORS
330
3C4
102
}
330
3C4
100
DictionaryVariables
280
     0
  1
1:1
  0
DICTIONARYVAR
  5
D70
102
{ACAD_REACTORS
330
3C4
102
}
330
3C4
100
DictionaryVariables
280
     0
  1
STANDARD
  0
DICTIONARYVAR
  5
3D7
102
{ACAD_REACTORS
330
3C4
102
}
330
3C4
100
DictionaryVariables
280
     0
  1
STANDARD
  0
DICTIONARYVAR
  5
3C5
102
{ACAD_REACTORS
330
3C4
102
}
330
3C4
100
DictionaryVariables
280
     0
  1
1
  0
DICTIONARYVAR
  5
D73
102
{ACAD_REACTORS
330
3C4
102
}
330
3C4
100
DictionaryVariables
280
     0
  1
0
  0
DICTIONARYVAR
  5
D71
102
{ACAD_REACTORS
330
3C4
102
}
330
3C4
100
DictionaryVariables
280
     0
  1
0
  0
XRECORD
  5
2142
102
{ACAD_REACTORS
330
2141
102
}
330
2141
100
AcDbXrecord
280
     1
330
85C
330
85D
  0
DICTIONARY
  5
CB0
330
CAF
100
AcDbDictionary
280
     1
281
     1
  3
BUMPTILE
360
CB2
  3
DIFFUSETILE
360
CB1
  3
OPACITYTILE
360
CB5
  3
REFLECTIONTILE
360
CB4
  3
REFRACTIONTILE
360
CB6
  3
SPECULARTILE
360
CB3
  0
DICTIONARY
  5
CA8
330
CA7
100
AcDbDictionary
280
     1
281
     1
  3
BUMPTILE
360
CAA
  3
DIFFUSETILE
360
CA9
  3
OPACITYTILE
360
CAD
  3
REFLECTIONTILE
360
CAC
  3
REFRACTIONTILE
360
CAE
  3
SPECULARTILE
360
CAB
  0
DICTIONARY
  5
CB8
330
CB7
100
AcDbDictionary
280
     1
281
     1
  3
BUMPTILE
360
CBA
  3
DIFFUSETILE
360
CB9
  3
OPACITYTILE
360
CBD
  3
REFLECTIONTILE
360
CBC
  3
REFRACTIONTILE
360
CBE
  3
SPECULARTILE
360
CBB
  0
DICTIONARY
  5
D6D
330
3D3
100
AcDbDictionary
280
     1
281
     1
  3
ACAD_ROUNDTRIP_2008_TABLESTYLE_CELLSTYLEMAP
360
23EF
  0
XRECORD
  5
CB2
102
{ACAD_REACTORS
330
CB0
102
}
330
CB0
100
AcDbXrecord
280
     1
270
     1
271
     1
  0
XRECORD
  5
CB1
102
{ACAD_REACTORS
330
CB0
102
}
330
CB0
100
AcDbXrecord
280
     1
270
     1
271
     1
  0
XRECORD
  5
CB5
102
{ACAD_REACTORS
330
CB0
102
}
330
CB0
100
AcDbXrecord
280
     1
270
     1
271
     1
  0
XRECORD
  5
CB4
102
{ACAD_REACTORS
330
CB0
102
}
330
CB0
100
AcDbXrecord
280
     1
270
     1
271
     1
  0
XRECORD
  5
CB6
102
{ACAD_REACTORS
330
CB0
102
}
330
CB0
100
AcDbXrecord
280
     1
270
     1
271
     1
  0
XRECORD
  5
CB3
102
{ACAD_REACTORS
330
CB0
102
}
330
CB0
100
AcDbXrecord
280
     1
270
     1
271
     1
  0
XRECORD
  5
CAA
102
{ACAD_REACTORS
330
CA8
102
}
330
CA8
100
AcDbXrecord
280
     1
270
     1
271
     1
  0
XRECORD
  5
CA9
102
{ACAD_REACTORS
330
CA8
102
}
330
CA8
100
AcDbXrecord
280
     1
270
     1
271
     1
  0
XRECORD
  5
CAD
102
{ACAD_REACTORS
330
CA8
102
}
330
CA8
100
AcDbXrecord
280
     1
270
     1
271
     1
  0
XRECORD
  5
CAC
102
{ACAD_REACTORS
330
CA8
102
}
330
CA8
100
AcDbXrecord
280
     1
270
     1
271
     1
  0
XRECORD
  5
CAE
102
{ACAD_REACTORS
330
CA8
102
}
330
CA8
100
AcDbXrecord
280
     1
270
     1
271
     1
  0
XRECORD
  5
CAB
102
{ACAD_REACTORS
330
CA8
102
}
330
CA8
100
AcDbXrecord
280
     1
270
     1
271
     1
  0
XRECORD
  5
CBA
102
{ACAD_REACTORS
330
CB8
102
}
330
CB8
100
AcDbXrecord
280
     1
270
     1
271
     1
  0
XRECORD
  5
CB9
102
{ACAD_REACTORS
330
CB8
102
}
330
CB8
100
AcDbXrecord
280
     1
270
     1
271
     1
  0
XRECORD
  5
CBD
102
{ACAD_REACTORS
330
CB8
102
}
330
CB8
100
AcDbXrecord
280
     1
270
     1
271
     1
  0
XRECORD
  5
CBC
102
{ACAD_REACTORS
330
CB8
102
}
330
CB8
100
AcDbXrecord
280
     1
270
     1
271
     1
  0
XRECORD
  5
CBE
102
{ACAD_REACTORS
330
CB8
102
}
330
CB8
100
AcDbXrecord
280
     1
270
     1
271
     1
  0
XRECORD
  5
CBB
102
{ACAD_REACTORS
330
CB8
102
}
330
CB8
100
AcDbXrecord
280
     1
270
     1
271
     1
  0
CELLSTYLEMAP
  5
23EF
102
{ACAD_REACTORS
330
D6D
102
}
330
D6D
100
AcDbCellStyleMap
 90
        3
300
CELLSTYLE
  1
TABLEFORMAT_BEGIN
 90
        5
170
     1
 91
        0
 92
    32768
 62
   257
 93
        1
300
CONTENTFORMAT
  1
CONTENTFORMAT_BEGIN
 90
        0
 91
        0
 92
        4
 93
        0
300

 40
0.0
140
1.0
 94
        5
 62
     0
340
11
144
6.0
309
CONTENTFORMAT_END
171
     1
301
MARGIN
  1
CELLMARGIN_BEGIN
 40
1.5
 40
1.5
 40
1.5
 40
1.5
 40
0.18
 40
0.18
309
CELLMARGIN_END
 94
        6
 95
        1
302
GRIDFORMAT
  1
GRIDFORMAT_BEGIN
 90
        0
 91
        1
 62
     0
 92
       -2
340
0
 93
        0
 40
0.045
309
GRIDFORMAT_END
 95
        2
302
GRIDFORMAT
  1
GRIDFORMAT_BEGIN
 90
        0
 91
        1
 62
     0
 92
       -2
340
0
 93
        0
 40
0.045
309
GRIDFORMAT_END
 95
        4
302
GRIDFORMAT
  1
GRIDFORMAT_BEGIN
 90
        0
 91
        1
 62
     0
 92
       -2
340
0
 93
        0
 40
0.045
309
GRIDFORMAT_END
 95
        8
302
GRIDFORMAT
  1
GRIDFORMAT_BEGIN
 90
        0
 91
        1
 62
     0
 92
       -2
340
0
 93
        0
 40
0.045
309
GRIDFORMAT_END
 95
       16
302
GRIDFORMAT
  1
GRIDFORMAT_BEGIN
 90
        0
 91
        1
 62
     0
 92
       -2
340
0
 93
        0
 40
0.045
309
GRIDFORMAT_END
 95
       32
302
GRIDFORMAT
  1
GRIDFORMAT_BEGIN
 90
        0
 91
        1
 62
     0
 92
       -2
340
0
 93
        0
 40
0.045
309
GRIDFORMAT_END
309
TABLEFORMAT_END
  1
CELLSTYLE_BEGIN
 90
        1
 91
        1
300
_TITLE
309
CELLSTYLE_END
300
CELLSTYLE
  1
TABLEFORMAT_BEGIN
 90
        5
170
     1
 91
        0
 92
        0
 62
   257
 93
        1
300
CONTENTFORMAT
  1
CONTENTFORMAT_BEGIN
 90
        0
 91
        0
 92
        4
 93
        0
300

 40
0.0
140
1.0
 94
        5
 62
     0
340
11
144
4.5
309
CONTENTFORMAT_END
171
     1
301
MARGIN
  1
CELLMARGIN_BEGIN
 40
1.5
 40
1.5
 40
1.5
 40
1.5
 40
0.18
 40
0.18
309
CELLMARGIN_END
 94
        6
 95
        1
302
GRIDFORMAT
  1
GRIDFORMAT_BEGIN
 90
        0
 91
        1
 62
     0
 92
       -2
340
0
 93
        0
 40
0.045
309
GRIDFORMAT_END
 95
        2
302
GRIDFORMAT
  1
GRIDFORMAT_BEGIN
 90
        0
 91
        1
 62
     0
 92
       -2
340
0
 93
        0
 40
0.045
309
GRIDFORMAT_END
 95
        4
302
GRIDFORMAT
  1
GRIDFORMAT_BEGIN
 90
        0
 91
        1
 62
     0
 92
       -2
340
0
 93
        0
 40
0.045
309
GRIDFORMAT_END
 95
        8
302
GRIDFORMAT
  1
GRIDFORMAT_BEGIN
 90
        0
 91
        1
 62
     0
 92
       -2
340
0
 93
        0
 40
0.045
309
GRIDFORMAT_END
 95
       16
302
GRIDFORMAT
  1
GRIDFORMAT_BEGIN
 90
        0
 91
        1
 62
     0
 92
       -2
340
0
 93
        0
 40
0.045
309
GRIDFORMAT_END
 95
       32
302
GRIDFORMAT
  1
GRIDFORMAT_BEGIN
 90
        0
 91
        1
 62
     0
 92
       -2
340
0
 93
        0
 40
0.045
309
GRIDFORMAT_END
309
TABLEFORMAT_END
  1
CELLSTYLE_BEGIN
 90
        2
 91
        1
300
_HEADER
309
CELLSTYLE_END
300
CELLSTYLE
  1
TABLEFORMAT_BEGIN
 90
        5
170
     1
 91
        0
 92
        0
 62
   257
 93
        1
300
CONTENTFORMAT
  1
CONTENTFORMAT_BEGIN
 90
        0
 91
        0
 92
        4
 93
        0
300

 40
0.0
140
1.0
 94
        2
 62
     0
340
11
144
4.5
309
CONTENTFORMAT_END
171
     1
301
MARGIN
  1
CELLMARGIN_BEGIN
 40
1.5
 40
1.5
 40
1.5
 40
1.5
 40
0.18
 40
0.18
309
CELLMARGIN_END
 94
        6
 95
        1
302
GRIDFORMAT
  1
GRIDFORMAT_BEGIN
 90
        0
 91
        1
 62
     0
 92
       -2
340
0
 93
        0
 40
0.045
309
GRIDFORMAT_END
 95
        2
302
GRIDFORMAT
  1
GRIDFORMAT_BEGIN
 90
        0
 91
        1
 62
     0
 92
       -2
340
0
 93
        0
 40
0.045
309
GRIDFORMAT_END
 95
        4
302
GRIDFORMAT
  1
GRIDFORMAT_BEGIN
 90
        0
 91
        1
 62
     0
 92
       -2
340
0
 93
        0
 40
0.045
309
GRIDFORMAT_END
 95
        8
302
GRIDFORMAT
  1
GRIDFORMAT_BEGIN
 90
        0
 91
        1
 62
     0
 92
       -2
340
0
 93
        0
 40
0.045
309
GRIDFORMAT_END
 95
       16
302
GRIDFORMAT
  1
GRIDFORMAT_BEGIN
 90
        0
 91
        1
 62
     0
 92
       -2
340
0
 93
        0
 40
0.045
309
GRIDFORMAT_END
 95
       32
302
GRIDFORMAT
  1
GRIDFORMAT_BEGIN
 90
        0
 91
        1
 62
     0
 92
       -2
340
0
 93
        0
 40
0.045
309
GRIDFORMAT_END
309
TABLEFORMAT_END
  1
CELLSTYLE_BEGIN
 90
        3
 91
        2
300
_DATA
309
CELLSTYLE_END
  0
ENDSEC
  0
EOF
